+100


 

[Цитировать]

-Laneslide - Flying High- Страна: Germany
Жанр: Melodic Hard Rock/AOR
Год выпуска: 2013
Издатель (лейбл): Avenue Of Allies
Номер по каталогу: 13 01 0049
Страна выпуска диска: Germany
Формат: FLAC (image + .cue)
Битрейт аудио: lossless
Продолжительность: 00:46:49
- -

треклист

01. Flying High (04:34)
02. Hangin Out Here (03:47)
03. You Can Make It (04:51)
04. River Of Love (04:51)
05. Dancing Girls (04:27)
06. Understand (04:20)
07. Self Control (03:42)
08. Look The Other Way (04:50)
09. Your Fight (05:47)
10. Washed Away (05:34)
- -

лог создания рипа

Exact Audio Copy V1.0 beta 3 from 29. August 2011
EAC extraction logfile from 17. June 2013, 20:33
Laneslide /  Flying High
Used drive  : SlimtypeDVD A  DS8A5SH   Adapter: 0  ID: 1
Read mode               : Secure
Utilize accurate stream : Yes
Defeat audio cache      : Yes
Make use of C2 pointers : No
Read offset correction                      : 6
Overread into Lead-In and Lead-Out          : No
Fill up missing offset samples with silence : Yes
Delete leading and trailing silent blocks   : No
Null samples used in CRC calculations       : Yes
Used interface                              : Native Win32 interface for Win NT & 2000
Used output format              : User Defined Encoder
Selected bitrate                : 320 kBit/s
Quality                         : High
Add ID3 tag                     : No
Command line compressor         : C:\Program Files (x86)\Exact Audio Copy\Flac\flac.exe
Additional command line options : -V -8 -T "Date=%year%" -T "Genre=%genre%" %source%
TOC of the extracted CD
Track |   Start  |  Length  | Start sector | End sector
---------------------------------------------------------
1  |  0:00.00 |  4:34.45 |         0    |    20594
2  |  4:34.45 |  3:47.55 |     20595    |    37674
3  |  8:22.25 |  4:51.65 |     37675    |    59564
4  | 13:14.15 |  4:51.65 |     59565    |    81454
5  | 18:06.05 |  4:27.56 |     81455    |   101535
6  | 22:33.61 |  4:20.43 |    101536    |   121078
7  | 26:54.29 |  3:42.40 |    121079    |   137768
8  | 30:36.69 |  4:50.47 |    137769    |   159565
9  | 35:27.41 |  5:47.19 |    159566    |   185609
10  | 41:14.60 |  5:34.18 |    185610    |   210677
Range status and errors
Selected range
Filename D:\My Music\Laneslide - 2013 Flying High\Laneslide -  Flying High.wav
Peak level 98.8 %
Extraction speed 1.7 X
Range quality 99.9 %
Test CRC A91EB3CB
Copy CRC A91EB3CB
Copy OK
No errors occurred
AccurateRip summary
Track  1  accurately ripped (confidence 1)  [82D7CA11]  (AR v2)
Track  2  accurately ripped (confidence 1)  [7E6DF079]  (AR v2)
Track  3  accurately ripped (confidence 1)  [6BA9BC5F]  (AR v2)
Track  4  accurately ripped (confidence 1)  [CCEB3DC2]  (AR v2)
Track  5  accurately ripped (confidence 1)  [75A0EF55]  (AR v2)
Track  6  accurately ripped (confidence 1)  [DF6BE546]  (AR v2)
Track  7  accurately ripped (confidence 1)  [199007E4]  (AR v2)
Track  8  accurately ripped (confidence 1)  [5783A56A]  (AR v2)
Track  9  accurately ripped (confidence 1)  [985F0D91]  (AR v2)
Track 10  accurately ripped (confidence 1)  [FAD9CFEE]  (AR v2)
All tracks accurately ripped
End of status report

содержание индексной карты *cue

REM GENRE "Melodic Hard Rock"
REM DATE 2013
REM DISCID 920AF90A
REM COMMENT "ExactAudioCopy v1.0b3"
PERFORMER "Laneslide"
TITLE " Flying High"
FILE "Laneslide -  Flying High.flac" WAVE
TRACK 01 AUDIO
TITLE "Flying High"
PERFORMER "Laneslide"
INDEX 01 00:00:00
TRACK 02 AUDIO
TITLE "Hangin Out Here"
PERFORMER "Laneslide"
INDEX 01 04:34:45
TRACK 03 AUDIO
TITLE "You Can Make It"
PERFORMER "Laneslide"
INDEX 01 08:22:25
TRACK 04 AUDIO
TITLE "River Of Love"
PERFORMER "Laneslide"
INDEX 01 13:14:15
TRACK 05 AUDIO
TITLE "Dancing Girls"
PERFORMER "Laneslide"
INDEX 01 18:06:05
TRACK 06 AUDIO
TITLE "Understand"
PERFORMER "Laneslide"
INDEX 01 22:33:61
TRACK 07 AUDIO
TITLE "Self Control"
PERFORMER "Laneslide"
INDEX 01 26:54:29
TRACK 08 AUDIO
TITLE "Look The Other Way"
PERFORMER "Laneslide"
INDEX 01 30:36:69
TRACK 09 AUDIO
TITLE "Your Fight"
PERFORMER "Laneslide"
INDEX 01 35:27:41
TRACK 10 AUDIO
TITLE "Washed Away"
PERFORMER "Laneslide"
INDEX 01 41:14:60




Показать сообщения:    

Текущее время: 11-Дек 13:13

Часовой пояс: UTC + 11


Вы не можете начинать темы
Вы не можете отвечать на сообщения
Вы не можете редактировать свои сообщения
Вы не можете удалять свои сообщения
Вы не можете голосовать в опросах
Вы не можете прикреплять файлы к сообщениям
Вы не можете скачивать файлы

Сайт не предоставляет электронные версии произведений, а занимается лишь коллекционированием и каталогизацией ссылок, присылаемых и публикуемых на форуме нашими читателями. Если вы являетесь правообладателем какого-либо представленного материала и не желаете, чтобы ссылка на него находилась в нашем каталоге, свяжитесь с нами, и мы незамедлительно удалим ее. Файлы для обмена на трекере предоставлены пользователями сайта, и администрация не несет ответственности за их содержание. Просьба не заливать файлы, защищенные авторскими правами, а также файлы нелегального содержания!