+100


Топ за 24 часа
 
 

[Цитировать]

-Герцогиня / The Duchess-- Производство: Великобритания, Италия, Франция, США
Год выпуска: 2008 г.
Жанр: драма, мелодрама, биография, история
Продолжительность: 01:50:01
Мировая премьера: 3 сентября 2008
Российская премьера: 5 февраля 2009
Дата выхода DVD: 5 марта 2009
Дата выхода Blu-Ray: 5 марта 2009

Перевод: Профессиональный (полное дублирование)
Режиссер: Сол Дибб / Saul Dibb-В ролях: Кира Найтли, Рэйф Файнс, Шарлотта Рэмплинг, Доминик Купер, Хейли Этвелл, Саймон МакБерни, Эйдан МакАрдл, Джон Шрэпнел, Элистер Петри, Патрик Годфри
-Описание: Картина, посвященная судьбе легендарной герцогини Джорджины Кавендиш, которую часто называют «принцессой Дианой XVIII столетия». Герцогиня всегда принимала самое непосредственное участие в политической жизни королевства, а на выборах 1784 года даже обещала поцеловать каждого, кто проголосует за ее нового протеже Чарльза Джеймса Грея.-
Качество видео: BDRip
Контейнер: AVI
Видео кодек: XviD
Аудио кодек: AC3
Видео: 720x304, 1928 Кбит/сек, 23,976 кадра/сек, Бит/Пиксели 0.367
Аудио: 448 Кбит/сек, 6 каналов, 48,0 КГц
Аудио #2: 448 Кбит/сек, 6 каналов, 48,0 КГц
Cубтитры: отсутствуют

Доп. информация

1. Основой для фильма послужила вышедшая в 1998 году биографическая книга «Джорджина, герцогиня Девонширская» Аманды Формен, написанная ей на базе своей же докторской диссертации. Продюсер Габриэлла Тана и её партнёр исполнительный продюсер Кэролин Маркс-Блэквуд приобрели права на неё практически сразу же после публикации.
2. Тосканское красное платье, которое носит в фильме Кира Найтли, из-за предусмотренного в сценарии сложного трюка было изготовлено в трёх экземплярах. На три платья ушло 36 метров шёлка, и каждое из них было отделано зелёными и золотыми кружевами ручной работы.
3. Это уже второй фильм с участием Киры Найтли, который открывается кадрами её героини, идущей по траве с чем-то в руках. В фильме «Гордость и предубеждение» (2005) актриса идёт по травяной лужайке с книгой в руках, а здесь она несёт шляпу с именами участвующих в забеге.

Награды

Оскар, 2009 год
Победитель: Лучшие костюмы

Media Info

Общее
Полное имя : G:\Cкачка торрент\Герцогиня 2008.DUAL.BDRip.XviD.AC3.[pirat.ca]-HQCLUB.avi
Формат : AVI
Формат/Информация : Audio Video Interleave
Профиль формата : OpenDML
Размер файла : 2,18 Гбайт
Продолжительность : 1 ч. 50 м.
Общий поток : 2841 Кбит/сек
Название фильма : Герцогиня / The Duchess (2008) BDRip
Режиссёр : kingsize87 (Blu-ray Remux)
Программа кодирования : VirtualDubMod 1.5.10.2 (build 2542/release)
Правообладатель : HQCLUB
Примечание : 06.05.2011
Видео
Идентификатор : 0
Формат : MPEG-4 Visual
Профиль формата : Advanced Simple@L5
Параметр BVOP формата : 1
Параметр QPel формата : Нет
Параметр GMC формата : Без точки перехода
Параметр матрицы формата : Выборочная
Идентификатор кодека : XVID
Идентификатор кодека/Подсказка : XviD
Продолжительность : 1 ч. 50 м.
Битрейт : 1928 Кбит/сек
Ширина : 720 пикселей
Высота : 304 пикселя
Соотношение сторон : 2,35:1
Частота кадров : 23,976 кадра/сек
Цветовое пространство : YUV
Субдискретизация насыщенности : 4:2:0
Битовая глубина : 8 бит
Тип развёртки : Прогрессивная
Метод сжатия : С потерями
Бит/(Пиксели*Кадры) : 0.367
Размер потока : 1,48 Гбайт (68%)
Библиотека кодирования : XviD 62
Аудио #1
Идентификатор : 1
Формат : AC-3
Формат/Информация : Audio Coding 3
Расширение режима : CM (complete main)
Параметр Endianness формата : Big
Идентификатор кодека : 2000
Продолжительность : 1 ч. 49 м.
Вид битрейта : Постоянный
Битрейт : 448 Кбит/сек
Каналы : 6 каналов
Расположение каналов : Front: L C R, Side: L R, LFE
Частота : 48,0 КГц
Битовая глубина : 16 бит
Метод сжатия : С потерями
Размер потока : 352 Мбайт (16%)
Выравнивание : Разделение по промежуткам
Продолжительность промежутка : 42 мс. (1,00 видеокадр)
Время предзагрузки промежутка : 500 мс.
Аудио #2
Идентификатор : 2
Формат : AC-3
Формат/Информация : Audio Coding 3
Расширение режима : CM (complete main)
Параметр Endianness формата : Big
Идентификатор кодека : 2000
Продолжительность : 1 ч. 50 м.
Вид битрейта : Постоянный
Битрейт : 448 Кбит/сек
Каналы : 6 каналов
Расположение каналов : Front: L C R, Side: L R, LFE
Частота : 48,0 КГц
Битовая глубина : 16 бит
Метод сжатия : С потерями
Размер потока : 353 Мбайт (16%)
Выравнивание : Разделение по промежуткам
Продолжительность промежутка : 42 мс. (1,00 видеокадр)
Время предзагрузки промежутка : 500 мс.

Скриншот c названием фильма

Скриншоты





Показать сообщения:    

Текущее время: 11-Дек 13:11

Часовой пояс: UTC + 11


Вы не можете начинать темы
Вы не можете отвечать на сообщения
Вы не можете редактировать свои сообщения
Вы не можете удалять свои сообщения
Вы не можете голосовать в опросах
Вы не можете прикреплять файлы к сообщениям
Вы не можете скачивать файлы

Сайт не предоставляет электронные версии произведений, а занимается лишь коллекционированием и каталогизацией ссылок, присылаемых и публикуемых на форуме нашими читателями. Если вы являетесь правообладателем какого-либо представленного материала и не желаете, чтобы ссылка на него находилась в нашем каталоге, свяжитесь с нами, и мы незамедлительно удалим ее. Файлы для обмена на трекере предоставлены пользователями сайта, и администрация не несет ответственности за их содержание. Просьба не заливать файлы, защищенные авторскими правами, а также файлы нелегального содержания!