+100


Топ за 24 часа
 
 

[Цитировать]

-Приключения мистера Пибоди и Шермана / Mr. Peabody & Sherman-«Наперегонки с историей»- Производство: США, Bullwinkle Studios, Classic Media Productions, DreamWorks Animation, Pacific Data Images (PDI)
Год выпуска: 2014 г.
Жанр: Мультфильм, фантастика, комедия, приключения, семейный
Продолжительность: 01:32:28
Мировая премьера: 7 февраля 2014
Российская премьера: 6 марта 2014, «Двадцатый Век Фокс СНГ»
Дата выхода DVD: 14 августа 2014, «Двадцатый Век Фокс СНГ»
Дата выхода Blu-Ray: 14 августа 2014, «Двадцатый Век Фокс СНГ»-Перевод: Профессиональный (полное дублирование) [Чистый звук]
Оригинальный аудиопоток: английский-Режиссер: Роб Минкофф / Rob Minkoff
В ролях: Тай Буррелл, Макс Чарльз, Эриель Винтер, Стефен Колбер, Лесли Манн, Эллисон Джэнни, Стэнли Туччи, Том МакГрат, Лэйк Белл, Зак Каллисон-Описание: Мистер Пибоди — бизнесмен, изобретатель, ученый, нобелевский лауреат, гурман, двукратный олимпийский чемпион и гений… который кроме всего прочего является собакой. При помощи своего самого неординарного изобретения — машины ВЕЙБЕК — мистер Пибоди и его приемный сын Шерман мгновенно перемещаются в прошлое, где становятся свидетелями самых важных исторических событий и общаются с известными историческими персонажами. Но когда Шерман нарушает правила путешествий во времени, нашим героям приходится вновь отправиться в путь — на сей раз с целью восстановления цепи исторических событий и спасения будущего. Кроме того, мистеру Пибоди предстоит справиться с самой сложной для него задачей — стать настоящим отцом для Шермана.- -Качество видео: WEB-DL
Контейнер: MKV
Стандарт разрешения: 1080p
Видео кодек: MPEG4 AVC
Аудио кодек: AC3
Видео: 1920x1080 (16:9), 3 709 Kbps, 25.000 fps
Аудио: 192 Kbps, 2 ch, 48.0 KHz [Rus, Dub]
Аудио #2: 192 Kbps, 2 ch, 48.0 KHz [Eng, Original]
Cубтитры: Китайские (неотключаемые)

Media Info

General
Unique ID : 181703906583083412812894832085630782207 (0x88B2E643AB510E2392E532DFBB550AFF)
Complete name : D:\Mr.Peabody.and.Sherman.2014.WEB-DL.1080p.mkv
Format : Matroska
Format version : Version 4 / Version 2
File size : 2.70 GiB
Duration : 1h 32mn
Overall bit rate : 4 177 Kbps
Encoded date : UTC 2014-05-25 15:57:26
Writing application : mkvmerge v6.9.1 ('Blue Panther') 64bit built on Apr 18 2014 18:23:38
Writing library : libebml v1.3.0 + libmatroska v1.4.1
Video
ID : 1
Format : AVC
Format/Info : Advanced Video Codec
Format profile : Main@L4.0
Format settings, CABAC : Yes
Format settings, ReFrames : 2 frames
Codec ID : V_MPEG4/ISO/AVC
Duration : 1h 32mn
Bit rate : 3 709 Kbps
Width : 1 920 pixels
Height : 1 080 pixels
Display aspect ratio : 16:9
Frame rate mode : Constant
Frame rate : 25.000 fps
Color space : YUV
Chroma subsampling : 4:2:0
Bit depth : 8 bits
Scan type : Progressive
Bits/(Pixel*Frame) : 0.072
Stream size : 2.40 GiB (89%)
Writing library : avc encoder v1.9
Language : English
Default : Yes
Forced : No
Audio #1
ID : 2
Format : AC-3
Format/Info : Audio Coding 3
Mode extension : CM (complete main)
Format settings, Endianness : Big
Codec ID : A_AC3
Duration : 1h 32mn
Bit rate mode : Constant
Bit rate : 192 Kbps
Channel(s) : 2 channels
Channel positions : Front: L R
Sampling rate : 48.0 KHz
Bit depth : 16 bits
Compression mode : Lossy
Stream size : 127 MiB (5%)
Title : Dub (Line)
Language : Russian
Default : Yes
Forced : No
Audio #2
ID : 3
Format : AC-3
Format/Info : Audio Coding 3
Mode extension : CM (complete main)
Format settings, Endianness : Big
Codec ID : A_AC3
Duration : 1h 32mn
Bit rate mode : Constant
Bit rate : 192 Kbps
Channel(s) : 2 channels
Channel positions : Front: L R
Sampling rate : 48.0 KHz
Bit depth : 16 bits
Compression mode : Lossy
Stream size : 127 MiB (5%)
Title : Original
Language : English
Default : No
Forced : No

Скриншоты





Показать сообщения:    

Текущее время: 04-Дек 10:52

Часовой пояс: UTC + 11


Вы не можете начинать темы
Вы не можете отвечать на сообщения
Вы не можете редактировать свои сообщения
Вы не можете удалять свои сообщения
Вы не можете голосовать в опросах
Вы не можете прикреплять файлы к сообщениям
Вы не можете скачивать файлы

Сайт не предоставляет электронные версии произведений, а занимается лишь коллекционированием и каталогизацией ссылок, присылаемых и публикуемых на форуме нашими читателями. Если вы являетесь правообладателем какого-либо представленного материала и не желаете, чтобы ссылка на него находилась в нашем каталоге, свяжитесь с нами, и мы незамедлительно удалим ее. Файлы для обмена на трекере предоставлены пользователями сайта, и администрация не несет ответственности за их содержание. Просьба не заливать файлы, защищенные авторскими правами, а также файлы нелегального содержания!