+100


Топ за 24 часа
 
 

[Цитировать]

-Стражи Галактики. Часть 2 / Guardians of the Galaxy Vol. 2 (2017) UHD BDRemux [H.265/2160p] [4K, HDR, 10-bit]«This summer, the galaxy won't save itself»-Производство: США / Marvel Studios Inc.
Жанр: фантастика, боевик, приключения
Режиссер: Джеймс Ганн
Продюсер: Виктория Алонсо, Луис Д’Эспозито, Кевин Файги
Актеры: Крис Пратт, Зои Салдана, Дэйв Батиста, Вин Дизель, Брэдли Купер, Майкл Рукер, Карен Гиллан, Пом Клементьефф, Элизабет Дебики, Курт Рассел
Описание:
Все в сборе: землянин Питер Квилл (Звездный Лорд), молчаливый громила Дракс, зеленокожая наемница Гамора, живое дерево Грут и говорящий енот. Герои не изменяют себе и с завидной регулярностью продолжают попадать в немыслимые ситуации, выпутываясь из них почти без ущерба (а иногда даже с пользой) для окружающих. На этот раз им предстоит раскрыть одну из самых главных тайн во всей Галактике: кто же на самом деле отец Питера Квилла?

Возраст: 16+ (зрителям, достигшим 16 лет)
Рейтинг MPAA: PG-13 (детям до 13 лет просмотр нежелателен)
Дата мировой премьеры: 19 апреля 2017
Премьера (РФ): 4 мая 2017, «WDSSPR» 3D
Релиз на Blu-Ray/DVD: 5 сентября 2017, «Уолт Дисней Компани СНГ»

Релиз от: FraMeSToR, ExKinoRay
Продолжительность: 02:15:46
Качество: UHD BDRemux (HDR)
Перевод: Дублированный (Лицензия BD EUR)
Субтитры: Русские (forced, full), английские
Видео: H.265/HEVC, 3840x2160p, (16:9), 45.0 Mb/s, 23.976 fps
Аудио: AC3, 6 ch, 640 kbps - Русский
Аудио: DTS-HD MA, 8 ch, 4842 kbps - Английский

MediaInfo

General
Unique ID : 210925112031287910256145109865899548315 (0x9EAEB2ECF938B895968FBC31D218DE9B)
Complete name : F:VideoSSDGuardians.of.the.Galaxy.Vol.2.2017.2160p.4K.UltraHD.HEVC.HDR.ExKinoRay.mkv
Format : Matroska
Format version : Version 4 / Version 2
File size : 47.9 GiB
Duration : 2 h 15 min
Overall bit rate : 50.5 Mb/s
Encoded date : UTC 2017-10-08 08:32:21
Writing application : mkvmerge v16.0.0 ('Protest') 64-bit
Writing library : libebml v1.3.5 + libmatroska v1.4.8
Video
ID : 1
Format : HEVC
Format/Info : High Efficiency Video Coding
Format profile : Main 10@L5.1@High
Codec ID : V_MPEGH/ISO/HEVC
Duration : 2 h 15 min
Bit rate : 45.0 Mb/s
Width : 3 840 pixels
Height : 2 160 pixels
Display aspect ratio : 16:9
Frame rate mode : Constant
Frame rate : 23.976 (24000/1001) FPS
Color space : YUV
Chroma subsampling : 4:2:0 (Type 2)
Bit depth : 10 bits
Bits/(Pixel*Frame) : 0.227
Stream size : 42.7 GiB (89%)
Language : English
Default : Yes
Forced : No
Color range : Limited
Color primaries : BT.2020
Transfer characteristics : PQ
Matrix coefficients : BT.2020 non-constant
Mastering display color pri : R: x=0.680000 y=0.320000, G: x=0.265000 y=0.690000, B: x=0.150000 y=0.060000, White point: x=0.312700 y=0.329000
Mastering display luminance : min: 0.0050 cd/m2, max: 1000.0000 cd/m2
Audio #1
ID : 2
Format : AC-3
Format/Info : Audio Coding 3
Format settings, Endianness : Big
Codec ID : A_AC3
Duration : 2 h 15 min
Bit rate mode : Constant
Bit rate : 640 kb/s
Channel(s) : 6 channels
Channel positions : Front: L C R, Side: L R, LFE
Sampling rate : 48.0 kHz
Frame rate : 31.250 FPS (1536 SPF)
Bit depth : 16 bits
Compression mode : Lossy
Stream size : 622 MiB (1%)
Title : Dub [License]
Language : Russian
Service kind : Complete Main
Default : Yes
Forced : No
Audio #2
ID : 3
Format : DTS
Format/Info : Digital Theater Systems
Format profile : MA / Core
Mode : 16
Format settings, Endianness : Big
Codec ID : A_DTS
Duration : 2 h 15 min
Bit rate mode : Variable / Constant
Bit rate : 4 842 kb/s / 1 509 kb/s
Channel(s) : 8 channels / 6 channels
Channel positions : Front: L C R, Side: L R, Back: L R, LFE / Front: L C R, Side: L R, LFE
Sampling rate : 48.0 kHz
Frame rate : 93.750 FPS (512 SPF)
Bit depth : 24 bits
Compression mode : Lossless / Lossy
Stream size : 4.59 GiB (10%)
Title : Original
Language : English
Default : No
Forced : No
Text #1
ID : 4
Format : UTF-8
Codec ID : S_TEXT/UTF8
Codec ID/Info : UTF-8 Plain Text
Duration : 2 h 6 min
Bit rate : 0 b/s
Count of elements : 12
Stream size : 378 Bytes (0%)
Title : Forced
Language : Russian
Default : Yes
Forced : No
Text #2
ID : 5
Format : UTF-8
Codec ID : S_TEXT/UTF8
Codec ID/Info : UTF-8 Plain Text
Duration : 2 h 14 min
Bit rate : 74 b/s
Count of elements : 1547
Stream size : 73.8 KiB (0%)
Title : Full
Language : Russian
Default : No
Forced : No
Text #3
ID : 6
Format : UTF-8
Codec ID : S_TEXT/UTF8
Codec ID/Info : UTF-8 Plain Text
Duration : 2 h 14 min
Bit rate : 47 b/s
Count of elements : 1578
Stream size : 46.7 KiB (0%)
Title : Full
Language : English
Default : No
Forced : No
Menu
00:00:00.000 : en:00:00:00.000
00:09:56.179 : en:00:09:56.179
00:15:10.118 : en:00:15:10.118
00:22:14.083 : en:00:22:14.083
00:32:33.702 : en:00:32:33.702
00:36:52.127 : en:00:36:52.127
00:42:29.172 : en:00:42:29.172
00:48:03.464 : en:00:48:03.464
00:53:18.904 : en:00:53:18.904
00:58:45.939 : en:00:58:45.939
01:05:52.240 : en:01:05:52.240
01:11:12.435 : en:01:11:12.435
01:18:43.594 : en:01:18:43.594
01:23:55.322 : en:01:23:55.322
01:30:24.753 : en:01:30:24.753
01:39:36.179 : en:01:39:36.179
01:47:06.211 : en:01:47:06.211
01:54:21.605 : en:01:54:21.605
01:58:53.710 : en:01:58:53.710
02:07:13.459 : en:02:07:13.459
Скриншоты:




Показать сообщения:    

Текущее время: 21-Окт 15:54

Часовой пояс: UTC + 11


Вы не можете начинать темы
Вы не можете отвечать на сообщения
Вы не можете редактировать свои сообщения
Вы не можете удалять свои сообщения
Вы не можете голосовать в опросах
Вы не можете прикреплять файлы к сообщениям
Вы не можете скачивать файлы

Сайт не предоставляет электронные версии произведений, а занимается лишь коллекционированием и каталогизацией ссылок, присылаемых и публикуемых на форуме нашими читателями. Если вы являетесь правообладателем какого-либо представленного материала и не желаете, чтобы ссылка на него находилась в нашем каталоге, свяжитесь с нами, и мы незамедлительно удалим ее. Файлы для обмена на трекере предоставлены пользователями сайта, и администрация не несет ответственности за их содержание. Просьба не заливать файлы, защищенные авторскими правами, а также файлы нелегального содержания!