+100


Топ за 24 часа
 
 

[Цитировать]

- Ветреная река / Wind River (2017) WEBRip -Производство: Великобритания, Канада, США
Жанр: Боевик, Триллер, Криминал
Режиссер: Тейлор Шеридан
Продюсер: Браден Афтегуд, Элизабет А. Белл
Актеры: Джереми Реннер, Элизабет Олсен, Джон Бернтал, Келси Чоу, Джулия Джонс, Тео Брионес, Апесанахкват, Грэм Грин, Танту Кардинал, Эрик Ланж
Описание:
В пустыне на территории индейской резервации «Ветреная река» егерь Кори Ламберт находит изувеченное тело молодой девушки. Опытный охотник с трагическим прошлым, он берется помочь в расследовании этого дела агенту ФБР Джейн Бэннер, которая оказывается в мире, полном загадок и насилия. Но смогут ли они противостоять зловещим силам этих мест, где сама природа пропитана горечью и жаждой мщения?..

Возраст: 18+ (зрителям, достигшим 18 лет. запрещено для детей)
Рейтинг MPAA: R (лицам до 17 лет обязательно присутствие взрослого)
Дата мировой премьеры: 21 января 2017
Дата российской премьеры: 3 августа 2017
Продолжительность: 01:50:59
Качество видео: WEBRip
Перевод: Дублированный
Субтитры: отсутствуют
Реклама: присутствует видео и текстовая реклама
Видео: AVC/264, 1912х800, ~4 891 Kbps
Аудио: AC3, 2 ch, 384 Kbps | Русский, дублированный

MediaInfo

General
Unique ID : 196493048950369325983087403992696793761 (0x93D32F476F1A8CF9811DA87B43C0AAA1)
Complete name :D\Ветряная река\ReKa.2O17.D.WEB-DL.1O8OP.mkv
Format : Matroska
Format version : Version 2
File size : 4.08 GiB
Duration : 1h 48mn
Overall bit rate mode : Variable
Overall bit rate : 5 382 Kbps
Encoded date : UTC 2017-10-09 21:15:59
Writing application : mkvmerge v8.3.0 ('Over the Horizon') 64bit
Writing library : libebml v1.3.1 + libmatroska v1.4.2
DURATION : 01:48:26.417000000
NUMBER_OF_FRAMES : 155998
NUMBER_OF_BYTES : 4063369004
_STATISTICS_WRITING_APP : mkvmerge v8.3.0 ('Over the Horizon') 64bit
_STATISTICS_WRITING_DATE_UTC : 2017-10-09 21:15:59
_STATISTICS_TAGS : BPS DURATION NUMBER_OF_FRAMES NUMBER_OF_BYTES
Video
ID : 1
Format : AVC
Format/Info : Advanced Video Codec
Format profile : High@L4.1
Format settings, CABAC : Yes
Format settings, ReFrames : 5 frames
Codec ID : V_MPEG4/ISO/AVC
Duration : 1h 48mn
Bit rate mode : Variable
Bit rate : 4 891 Kbps
Maximum bit rate : 5 600 Kbps
Width : 1 912 pixels
Height : 800 pixels
Display aspect ratio : 2.40:1
Frame rate mode : Constant
Frame rate : 23.976 fps
Standard : Component
Color space : YUV
Chroma subsampling : 4:2:0
Bit depth : 8 bits
Scan type : Progressive
Bits/(Pixel*Frame) : 0.133
Stream size : 3.70 GiB (91%)
Default : Yes
Forced : No
Color primaries : BT.709
Transfer characteristics : BT.709
Matrix coefficients : BT.709
Audio
ID : 2
Format : AC-3
Format/Info : Audio Coding 3
Mode extension : CM (complete main)
Format settings, Endianness : Big
Codec ID : A_AC3
Duration : 1h 48mn
Bit rate mode : Constant
Bit rate : 384 Kbps
Channel count : 2 channels
Channel positions : Front: L R
Sampling rate : 48.0 KHz
Bit depth : 16 bits
Compression mode : Lossy
Stream size : 298 MiB (7%)
Default : Yes
Forced : No
Скриншоты:




Показать сообщения:    

Текущее время: 21-Окт 08:49

Часовой пояс: UTC + 11


Вы не можете начинать темы
Вы не можете отвечать на сообщения
Вы не можете редактировать свои сообщения
Вы не можете удалять свои сообщения
Вы не можете голосовать в опросах
Вы не можете прикреплять файлы к сообщениям
Вы не можете скачивать файлы

Сайт не предоставляет электронные версии произведений, а занимается лишь коллекционированием и каталогизацией ссылок, присылаемых и публикуемых на форуме нашими читателями. Если вы являетесь правообладателем какого-либо представленного материала и не желаете, чтобы ссылка на него находилась в нашем каталоге, свяжитесь с нами, и мы незамедлительно удалим ее. Файлы для обмена на трекере предоставлены пользователями сайта, и администрация не несет ответственности за их содержание. Просьба не заливать файлы, защищенные авторскими правами, а также файлы нелегального содержания!