+100


 

[Цитировать]

- Капитан Подштанник: Первый эпический фильм / Captain Underpants: The First Epic Movie (2017) BDRip [H.264/720p]«50% Hero. 100% Cotton»-Производство: США | DreamWorks Animation, Scholastic Productions
Жанр: Мультфильм, боевик, комедия, семейный
Режиссер: Дэвид Сорен
Продюсеры: Мари Бэллэнд, Роб Леттерман
Персонажи: д Хелмс, Кевин Харт, Ник Кролл, Томас Миддлдитч, Джордан Пил, Кристен Шаал, Ди Ди Решер, Брайан Посен, Дэвид Сорен, Мэл Родригез.
Описание:
Двое учеников начальной школы загипнотизировали директора школы так, что он стал супергероем, помогающим их одноклассникам.

Рейтинг MPAA: PG (рекомендуется присутствие родителей)
Дата мировой премьеры: 1 июня 2017
Продолжительность: 01:28:40
Качество видео: BDRip
Перевод: Многоголосый закадровый (Лицензия)
Субтитры: Английские (full, SDH)
Видео: AVC/H.264, 1280х692 (1.85:1), ~5458 kbps, 23.976 fps
Аудио 1: AC3, 6 ch, 448 Kbps, 48.0 kHz (Русский)
Аудио 2: AC3, 6 ch, 640 Kbps, 48.0 kHz (Английский)

MediaInfo

General
Unique ID : 245262957513845153136929177007923058467 (0xB883ED6AE7A5A2A7AC9A35EA6276D723)
Complete name : E:\Кино\Kapitan\Captain_Podshtannik_BDRip_720p.mkv
Format : Matroska
Format version : Version 2
File size : 4.06 GiB
Duration : 1 h 28 min
Overall bit rate : 6 549 kb/s
Encoded date : UTC 2017-10-11 10:06:22
Writing application : mkvmerge v8.3.0 ('Over the Horizon') 64bit
Writing library : libebml v1.3.1 + libmatroska v1.4.2
Video
ID : 1
Format : AVC
Format/Info : Advanced Video Codec
Format profile : High@L4.1
Format settings, CABAC : Yes
Format settings, ReFrames : 9 frames
Codec ID : V_MPEG4/ISO/AVC
Duration : 1 h 28 min
Bit rate : 5 458 kb/s
Width : 1 280 pixels
Height : 692 pixels
Display aspect ratio : 1.85:1
Frame rate mode : Constant
Frame rate : 23.976 (24000/1001) FPS
Color space : YUV
Chroma subsampling : 4:2:0
Bit depth : 8 bits
Scan type : Progressive
Bits/(Pixel*Frame) : 0.257
Stream size : 3.38 GiB (83%)
Writing library : x264 core 148 r2705.16 d50a22e VietHD_Custom_64
Encoding settings : cabac=1 / ref=9 / deblock=1:-3:-3 / analyse=0x3:0x133 / me=umh / subme=10 / psy=1 / fade_compensate=0.00 / psy_rd=0.80:0.00 / mixed_ref=1 / me_range=24 / chroma_me=1 / trellis=2 / 8x8dct=1 / cqm=0 / deadzone=21,11 / fast_pskip=0 / chroma_qp_offset=-2 / threads=22 / lookahead_threads=3 / sliced_threads=0 / nr=0 / decimate=0 / interlaced=0 / bluray_compat=0 / constrained_intra=0 / fgo=0 / bframes=9 / b_pyramid=2 / b_adapt=2 / b_bias=0 / direct=3 / weightb=1 / open_gop=0 / weightp=2 / keyint=250 / keyint_min=23 / scenecut=40 / intra_refresh=0 / rc_lookahead=60 / rc=crf / mbtree=0 / crf=16.0000 / qcomp=0.70 / qpmin=0:0:0 / qpmax=69:69:69 / qpstep=4 / vbv_maxrate=62500 / vbv_bufsize=78125 / crf_max=0.0 / nal_hrd=none / filler=0 / ip_ratio=1.30 / pb_ratio=1.20 / aq=3:0.90 / aq-sensitivity=10.00 / aq-factor=1.00:1.00:1.00 / aq2=0 / aq3=0
Language : English
Default : Yes
Forced : No
Color range : Limited
Matrix coefficients : BT.709
Audio #1
ID : 2
Format : AC-3
Format/Info : Audio Coding 3
Format settings, Endianness : Big
Codec ID : A_AC3
Duration : 1 h 28 min
Bit rate mode : Constant
Bit rate : 448 kb/s
Channel(s) : 6 channels
Channel positions : Front: L C R, Side: L R, LFE
Sampling rate : 48.0 kHz
Frame rate : 31.250 FPS (1536 spf)
Bit depth : 16 bits
Compression mode : Lossy
Stream size : 284 MiB (7%)
Language : Russian
Service kind : Complete Main
Default : Yes
Forced : No
Audio #2
ID : 3
Format : AC-3
Format/Info : Audio Coding 3
Format settings, Endianness : Big
Codec ID : A_AC3
Duration : 1 h 28 min
Bit rate mode : Constant
Bit rate : 640 kb/s
Channel(s) : 6 channels
Channel positions : Front: L C R, Side: L R, LFE
Sampling rate : 48.0 kHz
Frame rate : 31.250 FPS (1536 spf)
Bit depth : 16 bits
Compression mode : Lossy
Stream size : 406 MiB (10%)
Language : English
Service kind : Complete Main
Default : No
Forced : No
Text #1
ID : 4
Format : UTF-8
Codec ID : S_TEXT/UTF8
Codec ID/Info : UTF-8 Plain Text
Duration : 1 h 27 min
Bit rate : 77 b/s
Count of elements : 1855
Stream size : 49.9 KiB (0%)
Language : English
Default : No
Forced : No
Text #2
ID : 5
Format : UTF-8
Codec ID : S_TEXT/UTF8
Codec ID/Info : UTF-8 Plain Text
Duration : 1 h 27 min
Bit rate : 87 b/s
Count of elements : 2122
Stream size : 55.9 KiB (0%)
Title : SDH
Language : English
Default : No
Forced : No
Menu
00:00:00.000 : en:00:00:00.000
00:03:54.359 : en:00:03:54.359
00:06:58.918 : en:00:06:58.918
00:10:08.441 : en:00:10:08.441
00:12:58.653 : en:00:12:58.653
00:15:08.658 : en:00:15:08.658
00:17:44.981 : en:00:17:44.981
00:20:42.783 : en:00:20:42.783
00:23:45.257 : en:00:23:45.257
00:25:44.668 : en:00:25:44.668
00:29:26.264 : en:00:29:26.264
00:33:55.659 : en:00:33:55.659
00:38:24.177 : en:00:38:24.177
00:42:10.194 : en:00:42:10.194
00:46:12.061 : en:00:46:12.061
00:52:17.801 : en:00:52:17.801
00:55:02.841 : en:00:55:02.841
00:57:37.621 : en:00:57:37.621
01:00:57.445 : en:01:00:57.445
01:04:30.116 : en:01:04:30.116
01:08:24.934 : en:01:08:24.934
01:11:42.089 : en:01:11:42.089
01:15:44.373 : en:01:15:44.373
01:19:03.322 : en:01:19:03.322
Скриншоты:




Показать сообщения:    

Текущее время: 21-Окт 16:04

Часовой пояс: UTC + 11


Вы не можете начинать темы
Вы не можете отвечать на сообщения
Вы не можете редактировать свои сообщения
Вы не можете удалять свои сообщения
Вы не можете голосовать в опросах
Вы не можете прикреплять файлы к сообщениям
Вы не можете скачивать файлы

Сайт не предоставляет электронные версии произведений, а занимается лишь коллекционированием и каталогизацией ссылок, присылаемых и публикуемых на форуме нашими читателями. Если вы являетесь правообладателем какого-либо представленного материала и не желаете, чтобы ссылка на него находилась в нашем каталоге, свяжитесь с нами, и мы незамедлительно удалим ее. Файлы для обмена на трекере предоставлены пользователями сайта, и администрация не несет ответственности за их содержание. Просьба не заливать файлы, защищенные авторскими правами, а также файлы нелегального содержания!