+100


Топ за 24 часа
 
 

[Цитировать]

- Беглец (2017) DVB [H.264]-Телекомпания: РЕН
Жанр: Комедия, криминал
Режиссер: Михаил Жерневский
Актеры: Иван Охлобыстин, Семён Стругачев, Виктория Полторак, Григорий Сиятвинда, Анастасия Шунина-Махонина, Даниил Вахрушев, Александр Ильин, Ростислав Бершауэр, Максим Лагашкин, Вадим Смирнов
Описание:
Миша — профессиональный аферист, который подставил своего босса и «кинул» его на большие деньги. Чтобы избежать смертельно опасных последствий, он сбегает в родной город. В первый же день Миша вступается за свою давнюю любовь Наташу, ссорится с главным криминальным авторитетом по кличке Дон и случайно устраивается на работу в полицию. Теперь он сам ловит преступников, попутно спасаясь от киллера и пытаясь наладить личную жизнь..

Возраст: 16+ (зрителям, достигшим 16 лет)
Дата премьеры в РФ: 8 октября 2017

Релиз от: 25Kuzmich
Продолжительность: ~ 00:25:00 серия
Качество видео: DVB
Субтитры: Отсутствуют
Видео: AVC, 720x576@1047х576 (16:9), 25.000 fps, 2 734 Kbps (0.264 bit/pixel)
Аудио: MP2, 48.0 KHz, 2 ch, 192 Kbps, CBR

MediaInfo

Формат                                   : MPEG-TS
Размер файла                             : 540 Мбайт
Продолжительность                        : 24 м.
Режим общего битрейта                    : Переменный
Общий поток                              : 3080 Кбит/сек
Видео
Идентификатор                            : 2011 (0x7DB)
Идентификатор меню                       : 2010 (0x7DA)
Формат                                   : AVC
Формат/Информация                        : Advanced Video Codec
Профиль формата                          : Main@L3
Параметр CABAC формата                   : Да
Параметр ReFrames формата                : 3 кадра
Параметр GOP формата                     : M=4, N=28
Идентификатор кодека                     : 27
Продолжительность                        : 24 м.
Битрейт                                  : 2734 Кбит/сек
Ширина                                   : 720 пикселей
Высота                                   : 576 пикселей
Соотношение сторон                       : 16:9
Частота кадров                           : 25,000 кадров/сек
Стандарт вещания                         : Component
Цветовое пространство                    : YUV
Субдискретизация насыщенности            : 4:2:0
Битовая глубина                          : 8 бит
Тип развёртки                            : Чересстрочная
Порядок развёртки                        : Верхнее поле первое
Бит/(Пиксели*Кадры)                      : 0.264
Размер потока                            : 479 Мбайт (89%)
Цветовой диапазон                        : Limited
Основные цвета                           : BT.601 PAL
Характеристики трансфера                 : BT.470 System B, BT.470 System G
Коэффициенты матрицы                     : BT.601
Аудио
Идентификатор                            : 2012 (0x7DC)
Идентификатор меню                       : 2010 (0x7DA)
Формат                                   : MPEG Audio
Версия формата                           : Version 1
Профиль формата                          : Layer 2
Идентификатор кодека                     : 3
Продолжительность                        : 24 м.
Вид битрейта                             : Постоянный
Битрейт                                  : 192 Кбит/сек
Каналы                                   : 2 канала
Частота                                  : 48,0 КГц
Метод сжатия                             : С потерями
Размер потока                            : 33,7 Мбайт (6%)
Язык                                     : English
Скриншоты:




Показать сообщения:    

Текущее время: 14-Дек 19:18

Часовой пояс: UTC + 11


Вы не можете начинать темы
Вы не можете отвечать на сообщения
Вы не можете редактировать свои сообщения
Вы не можете удалять свои сообщения
Вы не можете голосовать в опросах
Вы не можете прикреплять файлы к сообщениям
Вы не можете скачивать файлы

Сайт не предоставляет электронные версии произведений, а занимается лишь коллекционированием и каталогизацией ссылок, присылаемых и публикуемых на форуме нашими читателями. Если вы являетесь правообладателем какого-либо представленного материала и не желаете, чтобы ссылка на него находилась в нашем каталоге, свяжитесь с нами, и мы незамедлительно удалим ее. Файлы для обмена на трекере предоставлены пользователями сайта, и администрация не несет ответственности за их содержание. Просьба не заливать файлы, защищенные авторскими правами, а также файлы нелегального содержания!