+100


Топ за 24 часа
 
 

[Цитировать]

- Малыш на драйве / Baby Driver (2017) BDRip [H.264/720p-LQ] -Производство: Великобритания, США / Big Talk Productions, Double Negative
Жанр: Боевик, Триллер, Криминал, Музыка
Режиссер: Эдгар Райт
Актеры: Энсел Элгорт, Кевин Спейси, Лили Джеймс, Эйса Гонсалес, Джон Хэмм, Джейми Фокс, Джон Бернтал, Фли, Лэнни Джун, Мика Ховард
Описание:
Молодой парень по прозвищу Малыш обожает стильную музыку, быструю езду и адреналин в крови. Вся его жизнь — это сплошные погони и перестрелки, ведь он работает водителем, который помогает бандитам скрыться с места преступления. Однажды он по-настоящему влюбляется и решает выйти из игры, но сначала ему предстоит выполнить еще одно задание, которое вполне может оказаться последним в его жизни.

Возраст: 18+ (зрителям, достигшим 18 лет. запрещено для детей)
Рейтинг MPAA: R (лицам до 17 лет обязательно присутствие взрослого)
Дата мировой премьеры: 11 марта 2017
Дата российской премьеры: 24 августа 2017, «WDSSPR»


Продолжительность: 01:52:40
Качество видео: BDRip
Перевод: Дублированный (iTunes)
Субтитры: Русские (форс., полные) Английские
Видео: AVC/H.264, 1280x536, ~ 2382 kbps, 23.976 fps
Аудио: AC3, 2 ch, 384 Kbps - Русский

h.264 log:

--[Information] [05.10.2017 14:34:18] Standard error stream
---[Information] [05.10.2017 14:34:33] raw [info]: 1280x536p 1:1 @ 24000/1001 fps (cfr)
---[Information] [05.10.2017 14:34:33] x264 [info]: using SAR=1/1
---[Information] [05.10.2017 14:34:33] x264 [info]: using cpu capabilities: MMX2 SSE2Fast SSSE3 SSE4.2 AVX
---[Information] [05.10.2017 14:34:33] x264 [info]: profile High, level 4.1
---[Information] [05.10.2017 17:26:12] x264 [info]: frame I:1797 Avg QP:17.85 size: 91311
---[Information] [05.10.2017 17:26:12] x264 [info]: frame P:39985 Avg QP:21.38 size: 25157
---[Information] [05.10.2017 17:26:12] x264 [info]: frame B:120290 Avg QP:23.48 size: 6999

---[Information] [05.10.2017 17:26:12] x264 [info]: consecutive B-frames: 4.7% 5.3% 8.3% 24.2% 14.7% 30.0% 6.7% 5.1% 1.1%

MediaInfo

Общее
Полное имя : \BDRip LQ\Малыш на драйве_Baby Driver.2017.BDRip.720p.LQ.NNMClub.mkv
Формат : Matroska
Версия формата : Version 4 / Version 2
Размер файла : 2,18 Гбайт
Продолжительность : 1 ч. 52 м.
Общий поток : 2767 Кбит/сек
Название фильма : Малыш на драйве_Baby Driver.2017.BDRip.720p.LQ.NNMClub
Дата кодирования : UTC 2017-10-05 14:59:31
Программа кодирования : mkvmerge v16.0.0 ('Protest') 64-bit
Библиотека кодирования : libebml v1.3.5 + libmatroska v1.4.8
Видео
Идентификатор : 1
Формат : AVC
Формат/Информация : Advanced Video Codec
Профиль формата : High@L4.1
Параметр CABAC формата : Да
Параметр RefFrames формата : 7 кадров
Идентификатор кодека : V_MPEG4/ISO/AVC
Продолжительность : 1 ч. 52 м.
Битрейт : 2382 Кбит/сек
Ширина : 1280 пикселей
Высота : 536 пикселей
Соотношение сторон : 2,40:1
Режим частоты кадров : Постоянный
Частота кадров : 23,976 (24000/1001) кадра/сек
Цветовое пространство : YUV
Субдискретизация насыщенности : 4:2:0
Битовая глубина : 8 бит
Тип развёртки : Прогрессивная
Бит/(Пиксели*Кадры) : 0.145
Размер потока : 1,87 Гбайт (86%)
Заголовок : Малыш на драйве_Baby Driver.2017.BDRip.720p.LQ.NNMClub
Библиотека кодирования : x264 core 152 r2851 ba24899
Настройки программы : cabac=1 / ref=7 / deblock=1:-2:-2 / analyse=0x3:0x133 / me=umh / subme=10 / psy=1 / psy_rd=1.00:0.00 / mixed_ref=1 / me_range=24 / chroma_me=1 / trellis=2 / 8x8dct=1 / cqm=0 / deadzone=21,11 / fast_pskip=0 / chroma_qp_offset=-2 / threads=12 / lookahead_threads=2 / sliced_threads=0 / nr=0 / decimate=1 / interlaced=0 / bluray_compat=0 / constrained_intra=0 / bframes=8 / b_pyramid=2 / b_adapt=2 / b_bias=0 / direct=3 / weightb=1 / open_gop=0 / weightp=2 / keyint=250 / keyint_min=23 / scenecut=40 / intra_refresh=0 / rc_lookahead=40 / rc=2pass / mbtree=1 / bitrate=2382 / ratetol=1.0 / qcomp=0.60 / qpmin=0 / qpmax=69 / qpstep=4 / cplxblur=20.0 / qblur=0.5 / vbv_maxrate=50000 / vbv_bufsize=62500 / nal_hrd=none / filler=0 / ip_ratio=1.40 / aq=1:0.70
Язык : English
Default : Да
Forced : Нет
Аудио
Идентификатор : 2
Формат : AC-3
Формат/Информация : Audio Coding 3
Параметр Endianness формата : Big
Идентификатор кодека : A_AC3
Продолжительность : 1 ч. 52 м.
Вид битрейта : Постоянный
Битрейт : 384 Кбит/сек
Каналы : 6 каналов
Расположение каналов : Front: L C R, Side: L R, LFE
Частота : 48,0 КГц
Частота кадров : 31,250 кадров/сек (1536 SPF)
Битовая глубина : 16 бит
Метод сжатия : С потерями
Размер потока : 309 Мбайт (14%)
Язык : Russian
ServiceKind/String : Complete Main
Default : Да
Forced : Нет
Текст #1
Идентификатор : 3
Формат : UTF-8
Идентификатор кодека : S_TEXT/UTF8
Идентификатор кодека/Информация : UTF-8 Plain Text
Продолжительность : 1 ч. 46 м.
Битрейт : 1 бит/сек
ElementCount : 51
Размер потока : 1,50 Кбайт (0%)
Язык : Russian
Default : Да
Forced : Нет
Текст #2
Идентификатор : 4
Формат : UTF-8
Идентификатор кодека : S_TEXT/UTF8
Идентификатор кодека/Информация : UTF-8 Plain Text
Продолжительность : 1 ч. 51 м.
Битрейт : 96 бит/сек
ElementCount : 1602
Размер потока : 78,7 Кбайт (0%)
Язык : Russian
Default : Нет
Forced : Нет
Текст #3
Идентификатор : 5
Формат : UTF-8
Идентификатор кодека : S_TEXT/UTF8
Идентификатор кодека/Информация : UTF-8 Plain Text
Продолжительность : 1 ч. 51 м.
Битрейт : 67 бит/сек
ElementCount : 1944
Размер потока : 54,8 Кбайт (0%)
Язык : English
Default : Нет
Forced : Нет
Меню
00:00:00.000 : en:Chapter 01
00:09:11.050 : en:Chapter 02
00:13:30.476 : en:Chapter 03
00:20:58.173 : en:Chapter 04
00:25:17.599 : en:Chapter 05
00:33:07.902 : en:Chapter 06
00:43:43.245 : en:Chapter 07
00:48:15.642 : en:Chapter 08
00:53:39.549 : en:Chapter 09
00:58:51.903 : en:Chapter 10
01:05:23.544 : en:Chapter 11
01:11:34.081 : en:Chapter 12
01:19:17.002 : en:Chapter 13
01:30:30.675 : en:Chapter 14
01:38:04.169 : en:Chapter 15
01:43:30.412 : en:Chapter 16
Скриншоты:




Показать сообщения:    

Текущее время: 15-Дек 00:16

Часовой пояс: UTC + 11


Вы не можете начинать темы
Вы не можете отвечать на сообщения
Вы не можете редактировать свои сообщения
Вы не можете удалять свои сообщения
Вы не можете голосовать в опросах
Вы не можете прикреплять файлы к сообщениям
Вы не можете скачивать файлы

Сайт не предоставляет электронные версии произведений, а занимается лишь коллекционированием и каталогизацией ссылок, присылаемых и публикуемых на форуме нашими читателями. Если вы являетесь правообладателем какого-либо представленного материала и не желаете, чтобы ссылка на него находилась в нашем каталоге, свяжитесь с нами, и мы незамедлительно удалим ее. Файлы для обмена на трекере предоставлены пользователями сайта, и администрация не несет ответственности за их содержание. Просьба не заливать файлы, защищенные авторскими правами, а также файлы нелегального содержания!