+100


 

[Цитировать]

Американская семейка
Modern Family

«One big (straight, gay, multi-cultural, traditional) happy family.»
-Русское название: Американская семейка
Оригинальное название: Modern Family
Страна: США, Bad Robot, Fringe Element Films, Warner Bros. Television
Год выпуска: 2012
Жанр: Комедия-Озвучка: Студия LostFilm
Перевод: Многоголосый закадровый, профессиональный-Режиссер: Майкл Спиллер / Michael Spiller, Джейсон Уайнер / Jason Winer, Гэйл Манкусо / Gail Mancuso ...
В главных ролях: Эд О’Нил, Джули Боуэн, Ти Баррелл, София Вергара, Джесси Тайлер Фергюсон, Эрик Стоунстрит, Сара Хайланд, Нолан Гоулд, Эриель Винтер, Рико Родригез ...-Описание фильма:
Джей Притчетт познакомился со сногсшибательной колумбийкой Глорией, когда она в бикини подавала ему коктейли на вечеринке, которую он устроил в день ухода его первой жены. Теперь Джей и Глория женаты, и Джей изо всех сил старается не отставать от молодой красотки-жены и ее сына Мэни.
В семье Клэр Данфи тоже не все гладко. Ее муж Фил — просто замечательный, но он считает, что «свой в доску» для детей, чем их сильно смущает.
А сын Джея Митчелл и его партнер Камерон только что удочерили Лили, очаровательного младенца из Вьетнама.-Сезон: 5
Серии: 24 из 24 серий
Продолжительность: ~ 00:21:00 мин серия-Качество видео: WEB-DLRip
Формат: AVI
Видеокодек: XviD
Аудиокодек: Mp3
Видео: MPEG-4 Visual at 1915 Кбит/сек, 720 x 400 (1.800) at 23.976 fps, 0.28 Бит/Пиксели
Аудио: MPEG Audio at 192 Кбит/сек, 2 канала, 48,0 КГц
- --

Список серий:

  • Внезапно, прошлым летом (Suddenly, Last Summer)
  • Первый день (First Days)
  • Жена Ларри (Larry's Wife)
  • Сила фермера (Farm Strong)
  • Опоздание (The Late Show)
  • Подмога (The Help)
  • Ярмарка на все времена (A Fair to Remember)
  • Мертвец в колледже (Dead Man on Campus)
  • Большая игра (The Big Game)
  • Старик и дерево (The Old Man & the Tree)
  • Привыкание (And One to Grow On)
  • Под давлением (Under Pressure)
  • Три ужина (Three Dinners)
  • Шпионаж (iSpy)
  • Вражда (The Feud)
  • Спринг-а-динг-флинг (Spring-A-Ding-Fling)
  • Чужие дети (Other People's Children)
  • Лас Вегас (Las Vegas)
  • Трудный вечер у Джея (A Hard Jay's Night)
  • Австралия (Australia)
  • Спящий (Sleeper)
  • Намёк понят (Message Received)
  • Свадьба, часть 1 (The Wedding, Part 1)
  • Свадьба, часть 2 (The Wedding, Part 2)
-

MediaInfo:

Общее
Полное имя                               : E:\_Сериалы\Американская семейка\Modern Family 5 - LostFilm\Modern.Family.S05E01.rus.LostFilm.TV.avi
Формат                                   : AVI
Формат/Информация                        : Audio Video Interleave
Размер файла                             : 330 Мбайт
Продолжительность                        : 21 м.
Режим общего битрейта                    : Переменный
Общий поток                              : 2116 Кбит/сек
Программа кодирования                    : Nandub v1.0rc2
Библиотека кодирования                   : Nandub build 1853/release
Видео
Идентификатор                            : 0
Формат                                   : MPEG-4 Visual
Профиль формата                          : Simple@L3
Параметр BVOP формата                    : Нет
Параметр QPel формата                    : Нет
Параметр GMC формата                     : Без точки перехода
Параметр матрицы формата                 : Default (H.263)
Идентификатор кодека                     : XVID
Идентификатор кодека/Подсказка           : XviD
Продолжительность                        : 21 м.
Битрейт                                  : 1915 Кбит/сек
Ширина                                   : 720 пикселей
Высота                                   : 400 пикселей
Соотношение сторон                       : 16:9
Частота кадров                           : 23,976 кадра/сек
Цветовое пространство                    : YUV
Субдискретизация насыщенности            : 4:2:0
Битовая глубина                          : 8 бит
Тип развёртки                            : Прогрессивная
Метод сжатия                             : С потерями
Бит/(Пиксели*Кадры)                      : 0.277
Размер потока                            : 298 Мбайт (91%)
Библиотека кодирования                   : XviD 1.2.1 (UTC 2008-12-04)
Аудио
Идентификатор                            : 1
Формат                                   : MPEG Audio
Версия формата                           : Version 1
Профиль формата                          : Layer 3
Режим                                    : Joint stereo
Расширение режима                        : MS Stereo
Идентификатор кодека                     : 55
Идентификатор кодека/Подсказка           : MP3
Продолжительность                        : 21 м.
Вид битрейта                             : Переменный
Битрейт                                  : 192 Кбит/сек
Каналы                                   : 2 канала
Частота                                  : 48,0 КГц
Метод сжатия                             : С потерями
Размер потока                            : 29,3 Мбайт (9%)
Выравнивание                             : Соединение по промежуткам
Продолжительность промежутка             : 24  мс. (0,58 видеокадр)
Время предзагрузки промежутка            : 493  мс.
Библиотека кодирования                   : LAME3.97b
Настройки программы                      : -m j -V 4 -q 3 -lowpass 18.6 --abr 192
-

Скриншот c названием фильма

-Скриншоты:
-

Еще

-Добавлена двадцать четвертая, заключительная, серия пятого сезона
Шестой сезон ожидается в сентябре 2014 года.




Показать сообщения:    

Текущее время: 03-Дек 17:47

Часовой пояс: UTC + 11


Вы не можете начинать темы
Вы не можете отвечать на сообщения
Вы не можете редактировать свои сообщения
Вы не можете удалять свои сообщения
Вы не можете голосовать в опросах
Вы не можете прикреплять файлы к сообщениям
Вы не можете скачивать файлы

Сайт не предоставляет электронные версии произведений, а занимается лишь коллекционированием и каталогизацией ссылок, присылаемых и публикуемых на форуме нашими читателями. Если вы являетесь правообладателем какого-либо представленного материала и не желаете, чтобы ссылка на него находилась в нашем каталоге, свяжитесь с нами, и мы незамедлительно удалим ее. Файлы для обмена на трекере предоставлены пользователями сайта, и администрация не несет ответственности за их содержание. Просьба не заливать файлы, защищенные авторскими правами, а также файлы нелегального содержания!