+100


Топ за 24 часа
 
 

[Цитировать]

-Ген 13: Проект Генезис / Gen 13-- Производство: США
Режиссер: Кевин Алтери / Kevin Altieri
Жанр: Фантастика, боевик, мультфильм
Год выпуска: 2000 г.
Продолжительность: 01:26:26
Мировая премьера: 31 октября 2000 г.
Перевод: Профессиональный (многоголосый, закадровый)
Роли озвучивали:
Alicia Witt - Caitlin Fairchild (голос)
John de Lancie - Colonel John 'Jack' Lynch (голос)
Elizabeth Daily - Freefall/Roxy Spaulding (голос)
Flea - Grunge/Edward Chang (голос)
Mark Hamill - Threshold/Matthew Callahan (голос)
Lauren Lane - Ivana Baiul (голос)
Cloris Leachman - Helga (голос)
-Описание:
Еще вчера она была скромной и неприметной сиротой в очках, старательной и усидчивой студенткой, сдающей весеннюю сессию.
Но уже сегодня она сбивает камнями самолеты, ломает пополам винтовку "М-16" одним движением руки и носится по пустыне Невада, пачками отправляя на тот свет кровожадных правительственных убийц.
Все началось с того, что "под крылом" у государства было создано боевое подразделение, занимающееся совершенно секретной военной программой, получившей название "Проект Генезис". Простые смертные прибывали в счастливом неведении и понятия не имели, что под вывеской "Проекта Генезис" проводятся тайные эксперименты с генами, развивающие у бойцов сверхъестественные способности.
Кэйтлин Фэйрчайлд ничего не слышала о "Проекте Генезис". Какой-то странный человек на улице убедил ее в том, что она должна использовать свой шанс, поступив в специальное "учебное" заведение для активных и честолюбивых молодых людей. По прибытии в "Проект Генезис" девушке было присвоено тайное обозначение "Ген 13". Кэйтлин не подозревала, что ее покойный отец в свое время именовался как "Ген 12" и был в "Проекте" боевой единицей номер один. Он крушил многоэтажные дома и голыми руками отрывал башни у тяжелых танков. Кэйтлин тем более не сообщили, что она по всем показателям превосходит отца, что из нее собираются создавать сверхъестественную машину для убийства.
-Сэмпл
КиноПоиск

Качество видео: TVRip
Контейнер: AVI
Видео кодек: XviD
Аудио кодек: MP3
Видео: 640x480 (1.33:1), 25 fps, XviD build 50 ~1066 kbps avg, 0.14 bit/pixel
Аудио: 48 kHz, MPEG Layer 3, 2 ch, ~128.00 kbps avg
Cубтитры: отсутствуют

Обращение к пиратам и пираткам

Сегодня представляю вашему вниманию старый, но не самый добрый мультфильм из детства.
Рейтинг на кинопоиске 12+ выставлен оправдано - смело можете показывать мульт младшему брату или сестре от 10 до 14 лет.
Лично я смотрел примерно в этом же возрасте, получил массу впечатлений. Может и аудитории постарше этого возраста тоже будет интересно, я спустя 8 лет пересмотрел с удовольствием.
P.S. За скрины, если что извиняйте =).
Также прошу помогать в раздаче (если она, конечно, кого-нибудь заинтересует) и жать на Спасибо, кому релиз пришелся по нраву. Enjoy!

Media Info

Общее
Формат : AVI
Формат/Информация : Audio Video Interleave
Размер файла : 745 Мбайт
Продолжительность : 1 ч. 26 м.
Общий поток : 1205 Кбит/сек
Название фильма : Gen 13 (1999)
Программа кодирования : VirtualDubMod 1.5.10.2 (build 2540/release)VirtualDubMod build 2540/release
Видео
Идентификатор : 0
Формат : MPEG-4 Visual
Профиль формата : Advanced Simple@L5
Параметр BVOP формата : 2
Параметр QPel формата : Нет
Параметр GMC формата : Без точки перехода
Параметр матрицы формата : Default (H.263)
Идентификатор кодека : XVID
Идентификатор кодека/Подсказка : XviD
Продолжительность : 1 ч. 26 м.
Битрейт : 1067 Кбит/сек
Ширина : 640 пикселей
Высота : 480 пикселей
Соотношение сторон : 4:3
Частота кадров : 25,000 кадров/сек
Цветовое пространство : YUV
Субдискретизация насыщенности : 4:2:0
Битовая глубина : 8 бит
Тип развёртки : Прогрессивная
Метод сжатия : С потерями
Бит/(Пиксели*Кадры) : 0.139
Размер потока : 660 Мбайт (89%)
Библиотека кодирования : XviD 1.2.1 (UTC 2008-12-04)
Аудио
Идентификатор : 1
Формат : MPEG Audio
Версия формата : Version 1
Профиль формата : Layer 3
Идентификатор кодека : 55
Идентификатор кодека/Подсказка : MP3
Продолжительность : 1 ч. 26 м.
Вид битрейта : Постоянный
Битрейт : 128 Кбит/сек
Каналы : 2 канала
Частота : 48,0 КГц
Метод сжатия : С потерями
Размер потока : 79,1 Мбайт (11%)
Выравнивание : Соединение по промежуткам
Продолжительность промежутка : 40 мс. (1,00 видеокадр)
Время предзагрузки промежутка : 504 мс.
Библиотека кодирования : LAME3.98r
Настройки программы : -m s -V 4 -q 2 -lowpass 17 -b 128
Язык : Не определен

Скриншот c названием мультфильма

Скриншоты

Скринлист





Показать сообщения:    

Текущее время: 04-Дек 10:52

Часовой пояс: UTC + 11


Вы не можете начинать темы
Вы не можете отвечать на сообщения
Вы не можете редактировать свои сообщения
Вы не можете удалять свои сообщения
Вы не можете голосовать в опросах
Вы не можете прикреплять файлы к сообщениям
Вы не можете скачивать файлы

Сайт не предоставляет электронные версии произведений, а занимается лишь коллекционированием и каталогизацией ссылок, присылаемых и публикуемых на форуме нашими читателями. Если вы являетесь правообладателем какого-либо представленного материала и не желаете, чтобы ссылка на него находилась в нашем каталоге, свяжитесь с нами, и мы незамедлительно удалим ее. Файлы для обмена на трекере предоставлены пользователями сайта, и администрация не несет ответственности за их содержание. Просьба не заливать файлы, защищенные авторскими правами, а также файлы нелегального содержания!