+100


 

[Цитировать]

-Europa Plus TOP 40 август (2017) WEB-DL -Производство: Different countries
Жанр: Музыкальные клипы
Режиссер: Europa Plus
Актеры: См. треклист
Описание:
Представляем августовский топ Europa Plus. По сравнению с прошлым выпуском (см. ссылку на подобные релизы) обновление довольно значительное, но и времени прошло много. В связи с просьбами трудящихся в данном сборнике использовались клипы с более высоким битрейтом, чем ранее. В этой связи и "вес" сборника подрос. Слушайте хорошую музыку!
Продолжительность: 02:24:44
Качество видео: WEB-DL
Перевод: Отсутствует
Субтитры: отсутствуют
Видео: AVC/H.264, 1920x1080p, 16:9, 29,970 fps, ~9500 bps (искл. тр.19 - 5539 Кбит/сек, тр. 36 - 4882 Кбит/сек)
Аудио: MP3, 2 ch, 256 kbps
Треклист:
01. Luis Fonsi - Despacito ft. Daddy Yankee (4:42)
02. Portugal. The Man - Feel It Still (Official Video) (2:50)
03. Charlie Puth - Attention [Official Video] (3:52)
04. Yellow Claw - Good Day ft. DJ Snake & Elliphant (Official Video) (4:11)
05. Dua Lipa - Blow Your Mind (Mwah) (Official Video) (2:57)
06. Oceana - Can't Stop Thinking About You (Official Video) (2:58)
07. Imagine Dragons - Thunder (3:24)
08. DNCE - Kissing Strangers ft. Nicki Minaj (5:03)
09. Kokab - Got U (Ready or Not) Official Lyric Video (3:16)
10. C-Bool - Never Go Away (3:51)
11. AJR - Weak (Official Video) (3:48)
12. The Chainsmokers & Coldplay - Something Just Like This (Live at the BRITs) (4:20)
13. MONATIK - УВЛИУВТ (Official Video) (4:52)
14. Kaleo - Way Down We Go (Official Video) (3:34)
15. Елена Темникова - Вдох (Премьера клипа, 2017) (3:40)

Продолжение треклиста:

16. Katy Perry - Chained To The Rhythm (Official) ft. Skip Marley (4:01)
17. Rag'n'Bone Man - Human (Official Video) (3:18)
18. ARTIK & ASTI - Неделимы (Official Video) (3:24)
19. Palastic feat. Bright Sparks - Lying In The Sun (3:06)
20. Arilena Ara – Nentori (Beverly Pills Remix) (2:38)
21. Paul Damixie - Get Lost ( Official Video 2017 ) (3:16)
22. Дуэт EMMA M и Миша Марвин Перемотай (Life fest. ЖАРА В ВЕГАСЕ) (3:36)
23. David Guetta ft. Justin Bieber - 2U (Official Video) (3:07)
24. Swanky Tunes & The Parakit.Chipa-Lipa (video clip 2017) (3:02)
25. Matt Nash - Know My Love (Official Video) (3:07)
26. The Weeknd - I Feel It Coming ft. Daft Punk (4:58)
27. Boostee - Pop Corn (Official Video) (3:04)
28. Consoul Trainin - Take Me To Infinity (Official Video) (3:43)
29. Vanotek feat. Eneli - Tell Me Who (Official Video) (3:23)
30. Ed Sheeran - Shape of You (Official Video) (4:23)
31. ZAYN, Taylor Swift - I Don’t Wanna Live Forever (Fifty Shades Darker) (4:16)
32. L.B. ONE feat Laenz - Across The Water (Official Video) (4:47)
33. Era Istrefi - Redrum feat. Felix Snow (Official Video) (2:52)
34. Imagine Dragons - Believer (3:36)
35. Bebe Rexha - I Got You (Official Video) (3:17)
36. LP - Other People (Swanky Tunes & Going Deeper Remix)(SD Video Edit) (3:36)
37. Jonas Blue - Mama ft. William Singe (3:03)
38. Ben Delay - I Never Felt So Right (Official Video) (3:11)
39. Sean Paul - No Lie ft. Dua Lipa (3:48)
40. Ofenbach - Be Mine (Official Video) (2:55)

MediaInfo

Общее
Полное имя : H:\VA - Europa Plus TOP 40 2017.08 WEB-DL [H.264,1080p-LQ]\01. Luis Fonsi - Despacito ft. Daddy Yankee.mkv
Формат : Matroska
Версия формата : Version 1
Размер файла : 337 Мбайт
Продолжительность : 4 м. 41 с.
Общий поток : 10,0 Мбит/сек
Дата кодирования : UTC 2017-08-07 10:00:49
Библиотека кодирования : WonderShare Matroska Muxer
Видео
Идентификатор : 1
Формат : AVC
Формат/Информация : Advanced Video Codec
Профиль формата : Main@L4.1
Параметр CABAC формата : Да
Параметр ReFrames формата : 2 кадра
Идентификатор кодека : V_MPEG4/ISO/AVC
Битрейт : 9584 Кбит/сек
Ширина : 1920 пикселей
Высота : 1080 пикселей
Соотношение сторон : 16:9
Режим частоты кадров : Переменный
Частота кадров в оригинале : 29,970 кадров/сек
Цветовое пространство : YUV
Субдискретизация насыщенности : 4:2:0
Битовая глубина : 8 бит
Тип развёртки : Прогрессивная
Default : Да
Forced : Нет
Аудио
Идентификатор : 2
Формат : MPEG Audio
Версия формата : Version 1
Профиль формата : Layer 3
Режим : Joint stereo
Идентификатор кодека : A_MPEG/L3
Идентификатор кодека/Подсказка : MP3
Продолжительность : 4 м. 41 с.
Вид битрейта : Постоянный
Битрейт : 256 Кбит/сек
Каналы : 2 канала
Частота : 44,1 КГц
Метод сжатия : С потерями
Задержка видео : -33 мс.
Размер потока : 8,59 Мбайт (3%)
Библиотека кодирования : LAME3.98.2
Default : Да
Forced : Нет
Общее
Полное имя : H:\VA - Europa Plus TOP 40 2017.08 WEB-DL [H.264,1080p-LQ]\02. Portugal. The Man - Feel It Still (Official Video).mkv
Формат : Matroska
Версия формата : Version 1
Размер файла : 205 Мбайт
Продолжительность : 2 м. 50 с.
Общий поток : 10,1 Мбит/сек
Дата кодирования : UTC 2017-08-05 12:10:50
Библиотека кодирования : WonderShare Matroska Muxer
Видео
Идентификатор : 1
Формат : AVC
Формат/Информация : Advanced Video Codec
Профиль формата : Main@L4.1
Параметр CABAC формата : Да
Параметр ReFrames формата : 2 кадра
Идентификатор кодека : V_MPEG4/ISO/AVC
Битрейт : 9636 Кбит/сек
Ширина : 1920 пикселей
Высота : 1080 пикселей
Соотношение сторон : 16:9
Режим частоты кадров : Переменный
Частота кадров в оригинале : 29,970 кадров/сек
Цветовое пространство : YUV
Субдискретизация насыщенности : 4:2:0
Битовая глубина : 8 бит
Тип развёртки : Прогрессивная
Default : Да
Forced : Нет
Аудио
Идентификатор : 2
Формат : MPEG Audio
Версия формата : Version 1
Профиль формата : Layer 3
Режим : Joint stereo
Идентификатор кодека : A_MPEG/L3
Идентификатор кодека/Подсказка : MP3
Продолжительность : 2 м. 50 с.
Вид битрейта : Постоянный
Битрейт : 256 Кбит/сек
Каналы : 2 канала
Частота : 44,1 КГц
Метод сжатия : С потерями
Задержка видео : -33 мс.
Размер потока : 5,19 Мбайт (3%)
Библиотека кодирования : LAME3.98.2
Default : Да
Forced : Нет
Общее
Полное имя : H:\VA - Europa Plus TOP 40 2017.08 WEB-DL [H.264,1080p-LQ]\03. Charlie Puth - Attention [Official Video].mkv
Формат : Matroska
Версия формата : Version 1
Размер файла : 279 Мбайт
Продолжительность : 3 м. 51 с.
Общий поток : 10,1 Мбит/сек
Дата кодирования : UTC 2017-08-05 12:10:52
Библиотека кодирования : WonderShare Matroska Muxer
Видео
Идентификатор : 1
Формат : AVC
Формат/Информация : Advanced Video Codec
Профиль формата : Main@L4.1
Параметр CABAC формата : Да
Параметр ReFrames формата : 2 кадра
Идентификатор кодека : V_MPEG4/ISO/AVC
Битрейт : 9629 Кбит/сек
Ширина : 1920 пикселей
Высота : 1080 пикселей
Соотношение сторон : 16:9
Режим частоты кадров : Переменный
Частота кадров в оригинале : 29,970 кадров/сек
Цветовое пространство : YUV
Субдискретизация насыщенности : 4:2:0
Битовая глубина : 8 бит
Тип развёртки : Прогрессивная
Default : Да
Forced : Нет
Аудио
Идентификатор : 2
Формат : MPEG Audio
Версия формата : Version 1
Профиль формата : Layer 3
Режим : Joint stereo
Идентификатор кодека : A_MPEG/L3
Идентификатор кодека/Подсказка : MP3
Продолжительность : 3 м. 51 с.
Вид битрейта : Постоянный
Битрейт : 256 Кбит/сек
Каналы : 2 канала
Частота : 44,1 КГц
Метод сжатия : С потерями
Задержка видео : -33 мс.
Размер потока : 7,07 Мбайт (3%)
Библиотека кодирования : LAME3.98.2
Default : Да
Forced : Нет
Общее
Полное имя : H:\VA - Europa Plus TOP 40 2017.08 WEB-DL [H.264,1080p-LQ]\04. Yellow Claw - Good Day ft. DJ Snake & Elliphant [OFFICIAL MUSIC VIDEO].mkv
Формат : Matroska
Версия формата : Version 1
Размер файла : 289 Мбайт
Продолжительность : 4 м. 11 с.
Общий поток : 9667 Кбит/сек
Дата кодирования : UTC 2017-08-05 12:11:01
Библиотека кодирования : WonderShare Matroska Muxer
Видео
Идентификатор : 1
Формат : AVC
Формат/Информация : Advanced Video Codec
Профиль формата : Main@L4.1
Параметр CABAC формата : Да
Параметр ReFrames формата : 2 кадра
Параметр GOP формата : M=3, N=25
Идентификатор кодека : V_MPEG4/ISO/AVC
Битрейт : 9219 Кбит/сек
Ширина : 1920 пикселей
Высота : 1080 пикселей
Соотношение сторон : 16:9
Режим частоты кадров : Переменный
Частота кадров в оригинале : 29,970 кадров/сек
Цветовое пространство : YUV
Субдискретизация насыщенности : 4:2:0
Битовая глубина : 8 бит
Тип развёртки : Прогрессивная
Default : Да
Forced : Нет
Аудио
Идентификатор : 2
Формат : MPEG Audio
Версия формата : Version 1
Профиль формата : Layer 3
Режим : Joint stereo
Идентификатор кодека : A_MPEG/L3
Идентификатор кодека/Подсказка : MP3
Продолжительность : 4 м. 11 с.
Вид битрейта : Постоянный
Битрейт : 256 Кбит/сек
Каналы : 2 канала
Частота : 44,1 КГц
Метод сжатия : С потерями
Задержка видео : -33 мс.
Размер потока : 7,67 Мбайт (3%)
Библиотека кодирования : LAME3.98.2
Default : Да
Forced : Нет
Общее
Полное имя : H:\VA - Europa Plus TOP 40 2017.08 WEB-DL [H.264,1080p-LQ]\05. Dua Lipa - Blow Your Mind (Mwah) (Official Video).mkv
Формат : Matroska
Версия формата : Version 1
Размер файла : 216 Мбайт
Продолжительность : 2 м. 57 с.
Общий поток : 10,2 Мбит/сек
Дата кодирования : UTC 2017-08-05 12:11:09
Библиотека кодирования : WonderShare Matroska Muxer
Видео
Идентификатор : 1
Формат : AVC
Формат/Информация : Advanced Video Codec
Профиль формата : Main@L4.1
Параметр CABAC формата : Да
Параметр ReFrames формата : 2 кадра
Идентификатор кодека : V_MPEG4/ISO/AVC
Битрейт : 9771 Кбит/сек
Ширина : 1920 пикселей
Высота : 1080 пикселей
Соотношение сторон : 16:9
Режим частоты кадров : Переменный
Частота кадров в оригинале : 29,970 кадров/сек
Цветовое пространство : YUV
Субдискретизация насыщенности : 4:2:0
Битовая глубина : 8 бит
Тип развёртки : Прогрессивная
Default : Да
Forced : Нет
Аудио
Идентификатор : 2
Формат : MPEG Audio
Версия формата : Version 1
Профиль формата : Layer 3
Режим : Joint stereo
Идентификатор кодека : A_MPEG/L3
Идентификатор кодека/Подсказка : MP3
Продолжительность : 2 м. 57 с.
Вид битрейта : Постоянный
Битрейт : 256 Кбит/сек
Каналы : 2 канала
Частота : 44,1 КГц
Метод сжатия : С потерями
Задержка видео : -33 мс.
Размер потока : 5,41 Мбайт (3%)
Библиотека кодирования : LAME3.98.2
Default : Да
Forced : Нет
Общее
Полное имя : H:\VA - Europa Plus TOP 40 2017.08 WEB-DL [H.264,1080p-LQ]\06. Oceana - Can't Stop Thinking About You (Official Video).mkv
Формат : Matroska
Версия формата : Version 1
Размер файла : 216 Мбайт
Продолжительность : 2 м. 57 с.
Общий поток : 10,2 Мбит/сек
Дата кодирования : UTC 2017-08-05 12:10:56
Библиотека кодирования : WonderShare Matroska Muxer
Видео
Идентификатор : 1
Формат : AVC
Формат/Информация : Advanced Video Codec
Профиль формата : Main@L4.1
Параметр CABAC формата : Да
Параметр ReFrames формата : 2 кадра
Параметр GOP формата : M=3, N=25
Идентификатор кодека : V_MPEG4/ISO/AVC
Битрейт : 9726 Кбит/сек
Ширина : 1920 пикселей
Высота : 1080 пикселей
Соотношение сторон : 16:9
Режим частоты кадров : Переменный
Частота кадров в оригинале : 29,970 кадров/сек
Цветовое пространство : YUV
Субдискретизация насыщенности : 4:2:0
Битовая глубина : 8 бит
Тип развёртки : Прогрессивная
Default : Да
Forced : Нет
Аудио
Идентификатор : 2
Формат : MPEG Audio
Версия формата : Version 1
Профиль формата : Layer 3
Режим : Joint stereo
Расширение режима : MS Stereo
Идентификатор кодека : A_MPEG/L3
Идентификатор кодека/Подсказка : MP3
Продолжительность : 2 м. 57 с.
Вид битрейта : Постоянный
Битрейт : 256 Кбит/сек
Каналы : 2 канала
Частота : 44,1 КГц
Метод сжатия : С потерями
Задержка видео : -33 мс.
Размер потока : 5,42 Мбайт (3%)
Библиотека кодирования : LAME3.98.2
Default : Да
Forced : Нет
Общее
Полное имя : H:\VA - Europa Plus TOP 40 2017.08 WEB-DL [H.264,1080p-LQ]\07. Imagine Dragons - Thunder.mkv
Формат : Matroska
Версия формата : Version 1
Размер файла : 245 Мбайт
Продолжительность : 3 м. 23 с.
Общий поток : 10,1 Мбит/сек
Дата кодирования : UTC 2017-08-05 12:11:00
Библиотека кодирования : WonderShare Matroska Muxer
Видео
Идентификатор : 1
Формат : AVC
Формат/Информация : Advanced Video Codec
Профиль формата : Main@L4.1
Параметр CABAC формата : Да
Параметр ReFrames формата : 2 кадра
Идентификатор кодека : V_MPEG4/ISO/AVC
Битрейт : 9619 Кбит/сек
Ширина : 1920 пикселей
Высота : 1080 пикселей
Соотношение сторон : 16:9
Режим частоты кадров : Переменный
Частота кадров в оригинале : 29,970 кадров/сек
Цветовое пространство : YUV
Субдискретизация насыщенности : 4:2:0
Битовая глубина : 8 бит
Тип развёртки : Прогрессивная
Default : Да
Forced : Нет
Аудио
Идентификатор : 2
Формат : MPEG Audio
Версия формата : Version 1
Профиль формата : Layer 3
Режим : Joint stereo
Идентификатор кодека : A_MPEG/L3
Идентификатор кодека/Подсказка : MP3
Продолжительность : 3 м. 23 с.
Вид битрейта : Постоянный
Битрейт : 256 Кбит/сек
Каналы : 2 канала
Частота : 44,1 КГц
Метод сжатия : С потерями
Задержка видео : -33 мс.
Размер потока : 6,22 Мбайт (3%)
Библиотека кодирования : LAME3.98.2
Default : Да
Forced : Нет
Общее
Полное имя : H:\VA - Europa Plus TOP 40 2017.08 WEB-DL [H.264,1080p-LQ]\08. DNCE - Kissing Strangers ft. Nicki Minaj.mkv
Формат : Matroska
Версия формата : Version 1
Размер файла : 350 Мбайт
Продолжительность : 5 м. 3 с.
Общий поток : 9690 Кбит/сек
Дата кодирования : UTC 2017-08-05 12:11:00
Библиотека кодирования : WonderShare Matroska Muxer
Видео
Идентификатор : 1
Формат : AVC
Формат/Информация : Advanced Video Codec
Профиль формата : Main@L4.1
Параметр CABAC формата : Да
Параметр ReFrames формата : 2 кадра
Идентификатор кодека : V_MPEG4/ISO/AVC
Битрейт : 9241 Кбит/сек
Ширина : 1920 пикселей
Высота : 1080 пикселей
Соотношение сторон : 16:9
Режим частоты кадров : Переменный
Частота кадров в оригинале : 29,970 кадров/сек
Цветовое пространство : YUV
Субдискретизация насыщенности : 4:2:0
Битовая глубина : 8 бит
Тип развёртки : Прогрессивная
Default : Да
Forced : Нет
Аудио
Идентификатор : 2
Формат : MPEG Audio
Версия формата : Version 1
Профиль формата : Layer 3
Режим : Joint stereo
Идентификатор кодека : A_MPEG/L3
Идентификатор кодека/Подсказка : MP3
Продолжительность : 5 м. 3 с.
Вид битрейта : Постоянный
Битрейт : 256 Кбит/сек
Каналы : 2 канала
Частота : 44,1 КГц
Метод сжатия : С потерями
Задержка видео : -33 мс.
Размер потока : 9,25 Мбайт (3%)
Библиотека кодирования : LAME3.98.2
Default : Да
Forced : Нет
Общее
Полное имя : H:\VA - Europa Plus TOP 40 2017.08 WEB-DL [H.264,1080p-LQ]\09. Kokab - Got U (Ready or Not) Official Lyric Video.mkv
Формат : Matroska
Версия формата : Version 1
Размер файла : 233 Мбайт
Продолжительность : 3 м. 15 с.
Общий поток : 9990 Кбит/сек
Дата кодирования : UTC 2017-08-05 12:11:00
Библиотека кодирования : WonderShare Matroska Muxer
Видео
Идентификатор : 1
Формат : AVC
Формат/Информация : Advanced Video Codec
Профиль формата : Main@L4.1
Параметр CABAC формата : Да
Параметр ReFrames формата : 2 кадра
Идентификатор кодека : V_MPEG4/ISO/AVC
Битрейт : 9536 Кбит/сек
Ширина : 1920 пикселей
Высота : 1080 пикселей
Соотношение сторон : 16:9
Режим частоты кадров : Переменный
Частота кадров в оригинале : 29,970 кадров/сек
Цветовое пространство : YUV
Субдискретизация насыщенности : 4:2:0
Битовая глубина : 8 бит
Тип развёртки : Прогрессивная
Default : Да
Forced : Нет
Аудио
Идентификатор : 2
Формат : MPEG Audio
Версия формата : Version 1
Профиль формата : Layer 3
Режим : Joint stereo
Расширение режима : MS Stereo
Идентификатор кодека : A_MPEG/L3
Идентификатор кодека/Подсказка : MP3
Продолжительность : 3 м. 15 с.
Вид битрейта : Постоянный
Битрейт : 256 Кбит/сек
Каналы : 2 канала
Частота : 44,1 КГц
Метод сжатия : С потерями
Задержка видео : -33 мс.
Размер потока : 5,97 Мбайт (3%)
Библиотека кодирования : LAME3.98.2
Default : Да
Forced : Нет
Общее
Полное имя : H:\VA - Europa Plus TOP 40 2017.08 WEB-DL [H.264,1080p-LQ]\10. C-Bool - Never Go Away.mkv
Формат : Matroska
Версия формата : Version 1
Размер файла : 282 Мбайт
Продолжительность : 3 м. 50 с.
Общий поток : 10,2 Мбит/сек
Дата кодирования : UTC 2017-08-05 12:39:52
Библиотека кодирования : WonderShare Matroska Muxer
Видео
Идентификатор : 1
Формат : AVC
Формат/Информация : Advanced Video Codec
Профиль формата : Main@L4.1
Параметр CABAC формата : Да
Параметр ReFrames формата : 2 кадра
Параметр GOP формата : M=3, N=25
Идентификатор кодека : V_MPEG4/ISO/AVC
Битрейт : 9771 Кбит/сек
Ширина : 1920 пикселей
Высота : 1080 пикселей
Соотношение сторон : 16:9
Режим частоты кадров : Переменный
Частота кадров в оригинале : 29,970 кадров/сек
Цветовое пространство : YUV
Субдискретизация насыщенности : 4:2:0
Битовая глубина : 8 бит
Тип развёртки : Прогрессивная
Default : Да
Forced : Нет
Аудио
Идентификатор : 2
Формат : MPEG Audio
Версия формата : Version 1
Профиль формата : Layer 3
Режим : Joint stereo
Идентификатор кодека : A_MPEG/L3
Идентификатор кодека/Подсказка : MP3
Продолжительность : 3 м. 50 с.
Вид битрейта : Постоянный
Битрейт : 256 Кбит/сек
Каналы : 2 канала
Частота : 44,1 КГц
Метод сжатия : С потерями
Задержка видео : -33 мс.
Размер потока : 7,05 Мбайт (3%)
Библиотека кодирования : LAME3.98.2
Default : Да
Forced : Нет
Общее
Полное имя : H:\VA - Europa Plus TOP 40 2017.08 WEB-DL [H.264,1080p-LQ]\11. AJR - Weak (OFFICIAL MUSIC VIDEO).mkv
Формат : Matroska
Версия формата : Version 1
Размер файла : 275 Мбайт
Продолжительность : 3 м. 47 с.
Общий поток : 10,1 Мбит/сек
Дата кодирования : UTC 2017-08-05 12:47:00
Библиотека кодирования : WonderShare Matroska Muxer
Видео
Идентификатор : 1
Формат : AVC
Формат/Информация : Advanced Video Codec
Профиль формата : Main@L4.1
Параметр CABAC формата : Да
Параметр ReFrames формата : 2 кадра
Идентификатор кодека : V_MPEG4/ISO/AVC
Продолжительность : 3 м. 47 с.
Битрейт : 9667 Кбит/сек
Ширина : 1920 пикселей
Высота : 1080 пикселей
Соотношение сторон : 16:9
Режим частоты кадров : Постоянный
Частота кадров : 29,970 кадров/сек
Цветовое пространство : YUV
Субдискретизация насыщенности : 4:2:0
Битовая глубина : 8 бит
Тип развёртки : Прогрессивная
Бит/(Пиксели*Кадры) : 0.156
Размер потока : 262 Мбайт (95%)
Default : Да
Forced : Нет
Аудио
Идентификатор : 2
Формат : MPEG Audio
Версия формата : Version 1
Профиль формата : Layer 3
Режим : Joint stereo
Расширение режима : MS Stereo
Идентификатор кодека : A_MPEG/L3
Идентификатор кодека/Подсказка : MP3
Продолжительность : 3 м. 47 с.
Вид битрейта : Постоянный
Битрейт : 256 Кбит/сек
Каналы : 2 канала
Частота : 44,1 КГц
Метод сжатия : С потерями
Задержка видео : -33 мс.
Размер потока : 6,95 Мбайт (3%)
Библиотека кодирования : LAME3.98.2
Default : Да
Forced : Нет
Общее
Полное имя : H:\VA - Europa Plus TOP 40 2017.08 WEB-DL [H.264,1080p-LQ]\12. The Chainsmokers & Coldplay - Something Just Like This (Live at the BRITs).mkv
Формат : Matroska
Версия формата : Version 1
Размер файла : 324 Мбайт
Продолжительность : 4 м. 20 с.
Общий поток : 10,5 Мбит/сек
Дата кодирования : UTC 2017-08-05 12:49:41
Библиотека кодирования : WonderShare Matroska Muxer
Видео
Идентификатор : 1
Формат : AVC
Формат/Информация : Advanced Video Codec
Профиль формата : Main@L4.1
Параметр CABAC формата : Да
Параметр ReFrames формата : 2 кадра
Параметр GOP формата : M=3, N=25
Идентификатор кодека : V_MPEG4/ISO/AVC
Битрейт : 9989 Кбит/сек
Ширина : 1920 пикселей
Высота : 1080 пикселей
Соотношение сторон : 16:9
Режим частоты кадров : Переменный
Частота кадров в оригинале : 29,970 кадров/сек
Цветовое пространство : YUV
Субдискретизация насыщенности : 4:2:0
Битовая глубина : 8 бит
Тип развёртки : Прогрессивная
Default : Да
Forced : Нет
Аудио
Идентификатор : 2
Формат : MPEG Audio
Версия формата : Version 1
Профиль формата : Layer 3
Режим : Joint stereo
Идентификатор кодека : A_MPEG/L3
Идентификатор кодека/Подсказка : MP3
Продолжительность : 4 м. 20 с.
Вид битрейта : Постоянный
Битрейт : 256 Кбит/сек
Каналы : 2 канала
Частота : 44,1 КГц
Метод сжатия : С потерями
Задержка видео : -33 мс.
Размер потока : 7,94 Мбайт (2%)
Библиотека кодирования : LAME3.98.2
Default : Да
Forced : Нет
Общее
Полное имя : H:\VA - Europa Plus TOP 40 2017.08 WEB-DL [H.264,1080p-LQ]\13. MONATIK - УВЛИУВТ (Official Video).mkv
Формат : Matroska
Версия формата : Version 1
Размер файла : 354 Мбайт
Продолжительность : 4 м. 51 с.
Общий поток : 10,2 Мбит/сек
Дата кодирования : UTC 2017-08-05 12:52:16
Библиотека кодирования : WonderShare Matroska Muxer
Видео
Идентификатор : 1
Формат : AVC
Формат/Информация : Advanced Video Codec
Профиль формата : Main@L4.1
Параметр CABAC формата : Да
Параметр ReFrames формата : 2 кадра
Параметр GOP формата : M=3, N=25
Идентификатор кодека : V_MPEG4/ISO/AVC
Битрейт : 9731 Кбит/сек
Ширина : 1920 пикселей
Высота : 1080 пикселей
Соотношение сторон : 16:9
Режим частоты кадров : Переменный
Частота кадров в оригинале : 29,970 кадров/сек
Цветовое пространство : YUV
Субдискретизация насыщенности : 4:2:0
Битовая глубина : 8 бит
Тип развёртки : Прогрессивная
Default : Да
Forced : Нет
Аудио
Идентификатор : 2
Формат : MPEG Audio
Версия формата : Version 1
Профиль формата : Layer 3
Режим : Joint stereo
Идентификатор кодека : A_MPEG/L3
Идентификатор кодека/Подсказка : MP3
Продолжительность : 4 м. 51 с.
Вид битрейта : Постоянный
Битрейт : 256 Кбит/сек
Каналы : 2 канала
Частота : 44,1 КГц
Метод сжатия : С потерями
Задержка видео : -33 мс.
Размер потока : 8,90 Мбайт (3%)
Библиотека кодирования : LAME3.98.2
Default : Да
Forced : Нет
Общее
Полное имя : H:\VA - Europa Plus TOP 40 2017.08 WEB-DL [H.264,1080p-LQ]\14. Kaleo - Way Down We Go (Official Video).mkv
Формат : Matroska
Версия формата : Version 1
Размер файла : 260 Мбайт
Продолжительность : 3 м. 34 с.
Общий поток : 10,2 Мбит/сек
Дата кодирования : UTC 2017-08-05 12:53:17
Библиотека кодирования : WonderShare Matroska Muxer
Видео
Идентификатор : 1
Формат : AVC
Формат/Информация : Advanced Video Codec
Профиль формата : Main@L4.1
Параметр CABAC формата : Да
Параметр ReFrames формата : 2 кадра
Идентификатор кодека : V_MPEG4/ISO/AVC
Битрейт : 9719 Кбит/сек
Ширина : 1920 пикселей
Высота : 1080 пикселей
Соотношение сторон : 16:9
Режим частоты кадров : Переменный
Частота кадров в оригинале : 29,970 кадров/сек
Цветовое пространство : YUV
Субдискретизация насыщенности : 4:2:0
Битовая глубина : 8 бит
Тип развёртки : Прогрессивная
Default : Да
Forced : Нет
Аудио
Идентификатор : 2
Формат : MPEG Audio
Версия формата : Version 1
Профиль формата : Layer 3
Режим : Joint stereo
Идентификатор кодека : A_MPEG/L3
Идентификатор кодека/Подсказка : MP3
Продолжительность : 3 м. 34 с.
Вид битрейта : Постоянный
Битрейт : 256 Кбит/сек
Каналы : 2 канала
Частота : 44,1 КГц
Метод сжатия : С потерями
Задержка видео : -33 мс.
Размер потока : 6,53 Мбайт (3%)
Библиотека кодирования : LAME3.98.2
Default : Да
Forced : Нет
Общее
Полное имя : H:\VA - Europa Plus TOP 40 2017.08 WEB-DL [H.264,1080p-LQ]\15. Елена Темникова - Вдох (Премьера клипа, 2017).mkv
Формат : Matroska
Версия формата : Version 1
Размер файла : 268 Мбайт
Продолжительность : 3 м. 39 с.
Общий поток : 10,2 Мбит/сек
Дата кодирования : UTC 2017-08-05 13:02:44
Библиотека кодирования : WonderShare Matroska Muxer
Видео
Идентификатор : 1
Формат : AVC
Формат/Информация : Advanced Video Codec
Профиль формата : Main@L4.1
Параметр CABAC формата : Да
Параметр ReFrames формата : 2 кадра
Идентификатор кодека : V_MPEG4/ISO/AVC
Битрейт : 9772 Кбит/сек
Ширина : 1920 пикселей
Высота : 1080 пикселей
Соотношение сторон : 16:9
Режим частоты кадров : Переменный
Частота кадров в оригинале : 29,970 кадров/сек
Цветовое пространство : YUV
Субдискретизация насыщенности : 4:2:0
Битовая глубина : 8 бит
Тип развёртки : Прогрессивная
Default : Да
Forced : Нет
Аудио
Идентификатор : 2
Формат : MPEG Audio
Версия формата : Version 1
Профиль формата : Layer 3
Режим : Joint stereo
Идентификатор кодека : A_MPEG/L3
Идентификатор кодека/Подсказка : MP3
Продолжительность : 3 м. 39 с.
Вид битрейта : Постоянный
Битрейт : 256 Кбит/сек
Каналы : 2 канала
Частота : 44,1 КГц
Метод сжатия : С потерями
Задержка видео : -33 мс.
Размер потока : 6,71 Мбайт (3%)
Библиотека кодирования : LAME3.98.2
Default : Да
Forced : Нет
Общее
Полное имя : H:\VA - Europa Plus TOP 40 2017.08 WEB-DL [H.264,1080p-LQ]\16. Katy Perry - Chained To The Rhythm (Official) ft. Skip Marley.mkv
Формат : Matroska
Версия формата : Version 1
Размер файла : 289 Мбайт
Продолжительность : 4 м. 0 с.
Общий поток : 10,1 Мбит/сек
Дата кодирования : UTC 2017-08-05 13:06:33
Библиотека кодирования : WonderShare Matroska Muxer
Видео
Идентификатор : 1
Формат : AVC
Формат/Информация : Advanced Video Codec
Профиль формата : Main@L4.1
Параметр CABAC формата : Да
Параметр ReFrames формата : 2 кадра
Идентификатор кодека : V_MPEG4/ISO/AVC
Битрейт : 9622 Кбит/сек
Ширина : 1920 пикселей
Высота : 1080 пикселей
Соотношение сторон : 16:9
Режим частоты кадров : Переменный
Частота кадров в оригинале : 29,970 кадров/сек
Цветовое пространство : YUV
Субдискретизация насыщенности : 4:2:0
Битовая глубина : 8 бит
Тип развёртки : Прогрессивная
Default : Да
Forced : Нет
Аудио
Идентификатор : 2
Формат : MPEG Audio
Версия формата : Version 1
Профиль формата : Layer 3
Режим : Joint stereo
Идентификатор кодека : A_MPEG/L3
Идентификатор кодека/Подсказка : MP3
Продолжительность : 4 м. 0 с.
Вид битрейта : Постоянный
Битрейт : 256 Кбит/сек
Каналы : 2 канала
Частота : 44,1 КГц
Метод сжатия : С потерями
Задержка видео : -33 мс.
Размер потока : 7,35 Мбайт (3%)
Библиотека кодирования : LAME3.98.2
Default : Да
Forced : Нет
Общее
Полное имя : H:\VA - Europa Plus TOP 40 2017.08 WEB-DL [H.264,1080p-LQ]\17. Rag'n'Bone Man - Human (Official Video).mkv
Формат : Matroska
Версия формата : Version 1
Размер файла : 237 Мбайт
Продолжительность : 3 м. 17 с.
Общий поток : 10,0 Мбит/сек
Дата кодирования : UTC 2017-08-05 13:24:56
Библиотека кодирования : WonderShare Matroska Muxer
Видео
Идентификатор : 1
Формат : AVC
Формат/Информация : Advanced Video Codec
Профиль формата : Main@L4.1
Параметр CABAC формата : Да
Параметр ReFrames формата : 2 кадра
Идентификатор кодека : V_MPEG4/ISO/AVC
Битрейт : 9585 Кбит/сек
Ширина : 1920 пикселей
Высота : 1080 пикселей
Соотношение сторон : 16:9
Режим частоты кадров : Переменный
Частота кадров в оригинале : 29,970 кадров/сек
Цветовое пространство : YUV
Субдискретизация насыщенности : 4:2:0
Битовая глубина : 8 бит
Тип развёртки : Прогрессивная
Default : Да
Forced : Нет
Аудио
Идентификатор : 2
Формат : MPEG Audio
Версия формата : Version 1
Профиль формата : Layer 3
Режим : Joint stereo
Идентификатор кодека : A_MPEG/L3
Идентификатор кодека/Подсказка : MP3
Продолжительность : 3 м. 17 с.
Вид битрейта : Постоянный
Битрейт : 256 Кбит/сек
Каналы : 2 канала
Частота : 44,1 КГц
Метод сжатия : С потерями
Задержка видео : -33 мс.
Размер потока : 6,04 Мбайт (3%)
Библиотека кодирования : LAME3.98.2
Default : Да
Forced : Нет
Общее
Полное имя : H:\VA - Europa Plus TOP 40 2017.08 WEB-DL [H.264,1080p-LQ]\18. ARTIK & ASTI - Неделимы (Official Video).mkv
Формат : Matroska
Версия формата : Version 1
Размер файла : 249 Мбайт
Продолжительность : 3 м. 24 с.
Общий поток : 10,2 Мбит/сек
Дата кодирования : UTC 2017-08-05 13:48:25
Библиотека кодирования : WonderShare Matroska Muxer
Видео
Идентификатор : 1
Формат : AVC
Формат/Информация : Advanced Video Codec
Профиль формата : Main@L4.1
Параметр CABAC формата : Да
Параметр ReFrames формата : 2 кадра
Идентификатор кодека : V_MPEG4/ISO/AVC
Битрейт : 9760 Кбит/сек
Ширина : 1920 пикселей
Высота : 1080 пикселей
Соотношение сторон : 16:9
Режим частоты кадров : Переменный
Частота кадров в оригинале : 29,970 кадров/сек
Цветовое пространство : YUV
Субдискретизация насыщенности : 4:2:0
Битовая глубина : 8 бит
Тип развёртки : Прогрессивная
Default : Да
Forced : Нет
Аудио
Идентификатор : 2
Формат : MPEG Audio
Версия формата : Version 1
Профиль формата : Layer 3
Режим : Joint stereo
Идентификатор кодека : A_MPEG/L3
Идентификатор кодека/Подсказка : MP3
Продолжительность : 3 м. 24 с.
Вид битрейта : Постоянный
Битрейт : 256 Кбит/сек
Каналы : 2 канала
Частота : 44,1 КГц
Метод сжатия : С потерями
Задержка видео : -33 мс.
Размер потока : 6,23 Мбайт (3%)
Библиотека кодирования : LAME3.98.2
Default : Да
Forced : Нет
Общее
Полное имя : H:\VA - Europa Plus TOP 40 2017.08 WEB-DL [H.264,1080p-LQ]\19. Palastic feat. Bright Sparks - Lying In The Sun.mkv
Формат : Matroska
Версия формата : Version 1
Размер файла : 131 Мбайт
Продолжительность : 3 м. 6 с.
Общий поток : 5913 Кбит/сек
Дата кодирования : UTC 2017-08-05 13:57:26
Библиотека кодирования : WonderShare Matroska Muxer
Видео
Идентификатор : 1
Формат : AVC
Формат/Информация : Advanced Video Codec
Профиль формата : Main@L4.1
Параметр CABAC формата : Да
Параметр ReFrames формата : 2 кадра
Параметр GOP формата : M=3, N=25
Идентификатор кодека : V_MPEG4/ISO/AVC
Битрейт : 5539 Кбит/сек
Ширина : 1920 пикселей
Высота : 1080 пикселей
Соотношение сторон : 16:9
Режим частоты кадров : Переменный
Частота кадров в оригинале : 29,970 кадров/сек
Цветовое пространство : YUV
Субдискретизация насыщенности : 4:2:0
Битовая глубина : 8 бит
Тип развёртки : Прогрессивная
Default : Да
Forced : Нет
Аудио
Идентификатор : 2
Формат : MPEG Audio
Версия формата : Version 1
Профиль формата : Layer 3
Режим : Joint stereo
Идентификатор кодека : A_MPEG/L3
Идентификатор кодека/Подсказка : MP3
Продолжительность : 3 м. 6 с.
Вид битрейта : Постоянный
Битрейт : 256 Кбит/сек
Каналы : 2 канала
Частота : 44,1 КГц
Метод сжатия : С потерями
Задержка видео : -33 мс.
Размер потока : 5,68 Мбайт (4%)
Библиотека кодирования : LAME3.98.2
Default : Да
Forced : Нет
Общее
Полное имя : H:\VA - Europa Plus TOP 40 2017.08 WEB-DL [H.264,1080p-LQ]\20. Arilena Ara – Nentori (Beverly Pills Remix).mkv
Формат : Matroska
Версия формата : Version 1
Размер файла : 189 Мбайт
Продолжительность : 2 м. 37 с.
Общий поток : 10,1 Мбит/сек
Дата кодирования : UTC 2017-08-05 14:00:57
Библиотека кодирования : WonderShare Matroska Muxer
Видео
Идентификатор : 1
Формат : AVC
Формат/Информация : Advanced Video Codec
Профиль формата : Main@L4.1
Параметр CABAC формата : Да
Параметр ReFrames формата : 2 кадра
Идентификатор кодека : V_MPEG4/ISO/AVC
Битрейт : 9607 Кбит/сек
Ширина : 1280 пикселей
Высота : 720 пикселей
Соотношение сторон : 16:9
Режим частоты кадров : Переменный
Частота кадров в оригинале : 29,970 кадров/сек
Цветовое пространство : YUV
Субдискретизация насыщенности : 4:2:0
Битовая глубина : 8 бит
Тип развёртки : Прогрессивная
Default : Да
Forced : Нет
Аудио
Идентификатор : 2
Формат : MPEG Audio
Версия формата : Version 1
Профиль формата : Layer 3
Режим : Joint stereo
Идентификатор кодека : A_MPEG/L3
Идентификатор кодека/Подсказка : MP3
Продолжительность : 2 м. 37 с.
Вид битрейта : Постоянный
Битрейт : 256 Кбит/сек
Каналы : 2 канала
Частота : 44,1 КГц
Метод сжатия : С потерями
Задержка видео : -33 мс.
Размер потока : 4,82 Мбайт (3%)
Библиотека кодирования : LAME3.98.2
Default : Да
Forced : Нет
Общее
Полное имя : H:\VA - Europa Plus TOP 40 2017.08 WEB-DL [H.264,1080p-LQ]\21. Paul Damixie - Get Lost ( Official Video 2017 ).mkv
Формат : Matroska
Версия формата : Version 1
Размер файла : 241 Мбайт
Продолжительность : 3 м. 16 с.
Общий поток : 10,3 Мбит/сек
Дата кодирования : UTC 2017-08-07 10:10:01
Библиотека кодирования : WonderShare Matroska Muxer
Видео
Идентификатор : 1
Формат : AVC
Формат/Информация : Advanced Video Codec
Профиль формата : Main@L4.1
Параметр CABAC формата : Да
Параметр ReFrames формата : 2 кадра
Идентификатор кодека : V_MPEG4/ISO/AVC
Битрейт : 9815 Кбит/сек
Ширина : 1920 пикселей
Высота : 1080 пикселей
Соотношение сторон : 16:9
Режим частоты кадров : Переменный
Частота кадров в оригинале : 29,970 кадров/сек
Цветовое пространство : YUV
Субдискретизация насыщенности : 4:2:0
Битовая глубина : 8 бит
Тип развёртки : Прогрессивная
Default : Да
Forced : Нет
Аудио
Идентификатор : 2
Формат : MPEG Audio
Версия формата : Version 1
Профиль формата : Layer 3
Режим : Joint stereo
Расширение режима : MS Stereo
Идентификатор кодека : A_MPEG/L3
Идентификатор кодека/Подсказка : MP3
Продолжительность : 3 м. 16 с.
Вид битрейта : Постоянный
Битрейт : 256 Кбит/сек
Каналы : 2 канала
Частота : 44,1 КГц
Метод сжатия : С потерями
Задержка видео : -33 мс.
Размер потока : 5,99 Мбайт (2%)
Библиотека кодирования : LAME3.98.2
Default : Да
Forced : Нет
Общее
Полное имя : H:\VA - Europa Plus TOP 40 2017.08 WEB-DL [H.264,1080p-LQ]\22. Дуэт EMMA M и Миша Марвин Перемотай . ЖАРА В ВЕГАСЕ.mkv
Формат : Matroska
Версия формата : Version 1
Размер файла : 265 Мбайт
Продолжительность : 3 м. 35 с.
Общий поток : 10,3 Мбит/сек
Дата кодирования : UTC 2017-08-05 12:06:32
Библиотека кодирования : WonderShare Matroska Muxer
Видео
Идентификатор : 1
Формат : AVC
Формат/Информация : Advanced Video Codec
Профиль формата : Main@L4.1
Параметр CABAC формата : Да
Параметр ReFrames формата : 2 кадра
Идентификатор кодека : V_MPEG4/ISO/AVC
Битрейт : 9832 Кбит/сек
Ширина : 1920 пикселей
Высота : 1080 пикселей
Соотношение сторон : 16:9
Режим частоты кадров : Переменный
Частота кадров в оригинале : 29,970 кадров/сек
Цветовое пространство : YUV
Субдискретизация насыщенности : 4:2:0
Битовая глубина : 8 бит
Тип развёртки : Прогрессивная
Default : Да
Forced : Нет
Аудио
Идентификатор : 2
Формат : MPEG Audio
Версия формата : Version 1
Профиль формата : Layer 3
Режим : Joint stereo
Расширение режима : MS Stereo
Идентификатор кодека : A_MPEG/L3
Идентификатор кодека/Подсказка : MP3
Продолжительность : 3 м. 35 с.
Вид битрейта : Постоянный
Битрейт : 256 Кбит/сек
Каналы : 2 канала
Частота : 44,1 КГц
Метод сжатия : С потерями
Задержка видео : -33 мс.
Размер потока : 6,58 Мбайт (2%)
Библиотека кодирования : LAME3.98.2
Default : Да
Forced : Нет
Общее
Полное имя : H:\VA - Europa Plus TOP 40 2017.08 WEB-DL [H.264,1080p-LQ]\23. David Guetta ft. Justin Bieber - 2U (Official Video).mkv
Формат : Matroska
Версия формата : Version 1
Размер файла : 229 Мбайт
Продолжительность : 3 м. 7 с.
Общий поток : 10,3 Мбит/сек
Дата кодирования : UTC 2017-08-05 14:24:46
Библиотека кодирования : WonderShare Matroska Muxer
Видео
Идентификатор : 1
Формат : AVC
Формат/Информация : Advanced Video Codec
Профиль формата : Main@L4.1
Параметр CABAC формата : Да
Параметр ReFrames формата : 2 кадра
Идентификатор кодека : V_MPEG4/ISO/AVC
Битрейт : 9794 Кбит/сек
Ширина : 1920 пикселей
Высота : 1080 пикселей
Соотношение сторон : 16:9
Режим частоты кадров : Переменный
Частота кадров в оригинале : 29,970 кадров/сек
Цветовое пространство : YUV
Субдискретизация насыщенности : 4:2:0
Битовая глубина : 8 бит
Тип развёртки : Прогрессивная
Default : Да
Forced : Нет
Аудио
Идентификатор : 2
Формат : MPEG Audio
Версия формата : Version 1
Профиль формата : Layer 3
Режим : Joint stereo
Идентификатор кодека : A_MPEG/L3
Идентификатор кодека/Подсказка : MP3
Продолжительность : 3 м. 7 с.
Вид битрейта : Постоянный
Битрейт : 256 Кбит/сек
Каналы : 2 канала
Частота : 44,1 КГц
Метод сжатия : С потерями
Задержка видео : -33 мс.
Размер потока : 5,71 Мбайт (2%)
Библиотека кодирования : LAME3.98.2
Default : Да
Forced : Нет
Общее
Полное имя : H:\VA - Europa Plus TOP 40 2017.08 WEB-DL [H.264,1080p-LQ]\24. Swanky Tunes & The Parakit.Chipa-Lipa (video clip 2017).mkv
Формат : Matroska
Версия формата : Version 1
Размер файла : 201 Мбайт
Продолжительность : 3 м. 2 с.
Общий поток : 9241 Кбит/сек
Дата кодирования : UTC 2017-08-05 14:24:45
Библиотека кодирования : WonderShare Matroska Muxer
Видео
Идентификатор : 1
Формат : AVC
Формат/Информация : Advanced Video Codec
Профиль формата : Main@L4.1
Параметр CABAC формата : Да
Параметр ReFrames формата : 2 кадра
Идентификатор кодека : V_MPEG4/ISO/AVC
Битрейт : 8801 Кбит/сек
Ширина : 854 пикселя
Высота : 480 пикселей
Соотношение сторон : 16:9
Режим частоты кадров : Переменный
Частота кадров в оригинале : 29,970 кадров/сек
Цветовое пространство : YUV
Субдискретизация насыщенности : 4:2:0
Битовая глубина : 8 бит
Тип развёртки : Прогрессивная
Default : Да
Forced : Нет
Аудио
Идентификатор : 2
Формат : MPEG Audio
Версия формата : Version 1
Профиль формата : Layer 3
Режим : Joint stereo
Идентификатор кодека : A_MPEG/L3
Идентификатор кодека/Подсказка : MP3
Продолжительность : 3 м. 2 с.
Вид битрейта : Постоянный
Битрейт : 256 Кбит/сек
Каналы : 2 канала
Частота : 44,1 КГц
Метод сжатия : С потерями
Задержка видео : -33 мс.
Размер потока : 5,56 Мбайт (3%)
Библиотека кодирования : LAME3.98.2
Default : Да
Forced : Нет
Общее
Полное имя : H:\VA - Europa Plus TOP 40 2017.08 WEB-DL [H.264,1080p-LQ]\25. Matt Nash - Know My Love (Official Music Video).mkv
Формат : Matroska
Версия формата : Version 1
Размер файла : 223 Мбайт
Продолжительность : 3 м. 6 с.
Общий поток : 10,0 Мбит/сек
Дата кодирования : UTC 2017-08-05 14:24:53
Библиотека кодирования : WonderShare Matroska Muxer
Видео
Идентификатор : 1
Формат : AVC
Формат/Информация : Advanced Video Codec
Профиль формата : Main@L4.1
Параметр CABAC формата : Да
Параметр ReFrames формата : 2 кадра
Идентификатор кодека : V_MPEG4/ISO/AVC
Битрейт : 9574 Кбит/сек
Ширина : 1920 пикселей
Высота : 1080 пикселей
Соотношение сторон : 16:9
Режим частоты кадров : Переменный
Частота кадров в оригинале : 29,970 кадров/сек
Цветовое пространство : YUV
Субдискретизация насыщенности : 4:2:0
Битовая глубина : 8 бит
Тип развёртки : Прогрессивная
Default : Да
Forced : Нет
Аудио
Идентификатор : 2
Формат : MPEG Audio
Версия формата : Version 1
Профиль формата : Layer 3
Режим : Joint stereo
Идентификатор кодека : A_MPEG/L3
Идентификатор кодека/Подсказка : MP3
Продолжительность : 3 м. 6 с.
Вид битрейта : Постоянный
Битрейт : 256 Кбит/сек
Каналы : 2 канала
Частота : 44,1 КГц
Метод сжатия : С потерями
Задержка видео : -33 мс.
Размер потока : 5,69 Мбайт (3%)
Библиотека кодирования : LAME3.98.2
Default : Да
Forced : Нет
Общее
Полное имя : H:\VA - Europa Plus TOP 40 2017.08 WEB-DL [H.264,1080p-LQ]\26. The Weeknd - I Feel It Coming ft. Daft Punk.mkv
Формат : Matroska
Версия формата : Version 1
Размер файла : 358 Мбайт
Продолжительность : 4 м. 57 с.
Общий поток : 10,1 Мбит/сек
Дата кодирования : UTC 2017-08-05 14:24:56
Библиотека кодирования : WonderShare Matroska Muxer
Видео
Идентификатор : 1
Формат : AVC
Формат/Информация : Advanced Video Codec
Профиль формата : Main@L4.1
Параметр CABAC формата : Да
Параметр ReFrames формата : 2 кадра
Параметр GOP формата : M=3, N=25
Идентификатор кодека : V_MPEG4/ISO/AVC
Битрейт : 9649 Кбит/сек
Ширина : 1920 пикселей
Высота : 1080 пикселей
Соотношение сторон : 16:9
Режим частоты кадров : Переменный
Частота кадров в оригинале : 29,970 кадров/сек
Цветовое пространство : YUV
Субдискретизация насыщенности : 4:2:0
Битовая глубина : 8 бит
Тип развёртки : Прогрессивная
Default : Да
Forced : Нет
Аудио
Идентификатор : 2
Формат : MPEG Audio
Версия формата : Version 1
Профиль формата : Layer 3
Режим : Joint stereo
Расширение режима : MS Stereo
Идентификатор кодека : A_MPEG/L3
Идентификатор кодека/Подсказка : MP3
Продолжительность : 4 м. 57 с.
Вид битрейта : Постоянный
Битрейт : 256 Кбит/сек
Каналы : 2 канала
Частота : 44,1 КГц
Метод сжатия : С потерями
Задержка видео : -33 мс.
Размер потока : 9,08 Мбайт (3%)
Библиотека кодирования : LAME3.98.2
Default : Да
Forced : Нет
Общее
Полное имя : H:\VA - Europa Plus TOP 40 2017.08 WEB-DL [H.264,1080p-LQ]\27. Boostee - Pop Corn (Clip officiel).mkv
Формат : Matroska
Версия формата : Version 1
Размер файла : 223 Мбайт
Продолжительность : 3 м. 4 с.
Общий поток : 10,2 Мбит/сек
Дата кодирования : UTC 2017-08-05 14:24:53
Библиотека кодирования : WonderShare Matroska Muxer
Видео
Идентификатор : 1
Формат : AVC
Формат/Информация : Advanced Video Codec
Профиль формата : Main@L4.1
Параметр CABAC формата : Да
Параметр ReFrames формата : 2 кадра
Параметр GOP формата : M=3, N=25
Идентификатор кодека : V_MPEG4/ISO/AVC
Битрейт : 9706 Кбит/сек
Ширина : 1920 пикселей
Высота : 1080 пикселей
Соотношение сторон : 16:9
Режим частоты кадров : Переменный
Частота кадров в оригинале : 29,970 кадров/сек
Цветовое пространство : YUV
Субдискретизация насыщенности : 4:2:0
Битовая глубина : 8 бит
Тип развёртки : Прогрессивная
Default : Да
Forced : Нет
Аудио
Идентификатор : 2
Формат : MPEG Audio
Версия формата : Version 1
Профиль формата : Layer 3
Режим : Joint stereo
Идентификатор кодека : A_MPEG/L3
Идентификатор кодека/Подсказка : MP3
Продолжительность : 3 м. 4 с.
Вид битрейта : Постоянный
Битрейт : 256 Кбит/сек
Каналы : 2 канала
Частота : 44,1 КГц
Метод сжатия : С потерями
Задержка видео : -33 мс.
Размер потока : 5,62 Мбайт (3%)
Библиотека кодирования : LAME3.98.2
Default : Да
Forced : Нет
Общее
Полное имя : H:\VA - Europa Plus TOP 40 2017.08 WEB-DL [H.264,1080p-LQ]\28. Consoul Trainin - Take Me To Infinity (Official Video HD).mkv
Формат : Matroska
Версия формата : Version 1
Размер файла : 272 Мбайт
Продолжительность : 3 м. 42 с.
Общий поток : 10,3 Мбит/сек
Дата кодирования : UTC 2017-08-05 14:24:54
Библиотека кодирования : WonderShare Matroska Muxer
Видео
Идентификатор : 1
Формат : AVC
Формат/Информация : Advanced Video Codec
Профиль формата : Main@L4.1
Параметр CABAC формата : Да
Параметр ReFrames формата : 2 кадра
Идентификатор кодека : V_MPEG4/ISO/AVC
Битрейт : 9793 Кбит/сек
Ширина : 1920 пикселей
Высота : 1080 пикселей
Соотношение сторон : 16:9
Режим частоты кадров : Переменный
Частота кадров в оригинале : 29,970 кадров/сек
Цветовое пространство : YUV
Субдискретизация насыщенности : 4:2:0
Битовая глубина : 8 бит
Тип развёртки : Прогрессивная
Default : Да
Forced : Нет
Аудио
Идентификатор : 2
Формат : MPEG Audio
Версия формата : Version 1
Профиль формата : Layer 3
Режим : Joint stereo
Идентификатор кодека : A_MPEG/L3
Идентификатор кодека/Подсказка : MP3
Продолжительность : 3 м. 42 с.
Вид битрейта : Постоянный
Битрейт : 256 Кбит/сек
Каналы : 2 канала
Частота : 44,1 КГц
Метод сжатия : С потерями
Задержка видео : -33 мс.
Размер потока : 6,80 Мбайт (2%)
Библиотека кодирования : LAME3.98.2
Default : Да
Forced : Нет
Общее
Полное имя : H:\VA - Europa Plus TOP 40 2017.08 WEB-DL [H.264,1080p-LQ]\29. Vanotek feat. Eneli - Tell Me Who Official Video.mkv
Формат : Matroska
Версия формата : Version 1
Размер файла : 235 Мбайт
Продолжительность : 3 м. 23 с.
Общий поток : 9695 Кбит/сек
Дата кодирования : UTC 2017-08-05 14:24:57
Библиотека кодирования : WonderShare Matroska Muxer
Видео
Идентификатор : 1
Формат : AVC
Формат/Информация : Advanced Video Codec
Профиль формата : Main@L4.1
Параметр CABAC формата : Да
Параметр ReFrames формата : 2 кадра
Параметр GOP формата : M=3, N=25
Идентификатор кодека : V_MPEG4/ISO/AVC
Битрейт : 9246 Кбит/сек
Ширина : 1920 пикселей
Высота : 1080 пикселей
Соотношение сторон : 16:9
Режим частоты кадров : Переменный
Частота кадров в оригинале : 29,970 кадров/сек
Цветовое пространство : YUV
Субдискретизация насыщенности : 4:2:0
Битовая глубина : 8 бит
Тип развёртки : Прогрессивная
Default : Да
Forced : Нет
Аудио
Идентификатор : 2
Формат : MPEG Audio
Версия формата : Version 1
Профиль формата : Layer 3
Режим : Joint stereo
Идентификатор кодека : A_MPEG/L3
Идентификатор кодека/Подсказка : MP3
Продолжительность : 3 м. 23 с.
Вид битрейта : Постоянный
Битрейт : 256 Кбит/сек
Каналы : 2 канала
Частота : 44,1 КГц
Метод сжатия : С потерями
Задержка видео : -33 мс.
Размер потока : 6,20 Мбайт (3%)
Библиотека кодирования : LAME3.98.2
Default : Да
Forced : Нет
Общее
Полное имя : H:\VA - Europa Plus TOP 40 2017.08 WEB-DL [H.264,1080p-LQ]\30. Ed Sheeran - Shape of You [Official Video].mkv
Формат : Matroska
Версия формата : Version 1
Размер файла : 308 Мбайт
Продолжительность : 4 м. 23 с.
Общий поток : 9829 Кбит/сек
Дата кодирования : UTC 2017-08-05 14:24:57
Библиотека кодирования : WonderShare Matroska Muxer
Видео
Идентификатор : 1
Формат : AVC
Формат/Информация : Advanced Video Codec
Профиль формата : Main@L4.1
Параметр CABAC формата : Да
Параметр ReFrames формата : 2 кадра
Идентификатор кодека : V_MPEG4/ISO/AVC
Битрейт : 9378 Кбит/сек
Ширина : 1920 пикселей
Высота : 1080 пикселей
Соотношение сторон : 16:9
Режим частоты кадров : Переменный
Частота кадров в оригинале : 29,970 кадров/сек
Цветовое пространство : YUV
Субдискретизация насыщенности : 4:2:0
Битовая глубина : 8 бит
Тип развёртки : Прогрессивная
Default : Да
Forced : Нет
Аудио
Идентификатор : 2
Формат : MPEG Audio
Версия формата : Version 1
Профиль формата : Layer 3
Режим : Joint stereo
Идентификатор кодека : A_MPEG/L3
Идентификатор кодека/Подсказка : MP3
Продолжительность : 4 м. 23 с.
Вид битрейта : Постоянный
Битрейт : 256 Кбит/сек
Каналы : 2 канала
Частота : 44,1 КГц
Метод сжатия : С потерями
Задержка видео : -33 мс.
Размер потока : 8,03 Мбайт (3%)
Библиотека кодирования : LAME3.98.2
Default : Да
Forced : Нет
Общее
Полное имя : H:\VA - Europa Plus TOP 40 2017.08 WEB-DL [H.264,1080p-LQ]\31. ZAYN, Taylor Swift - I Don’t Wanna Live Forever (Fifty Shades Darker).mkv
Формат : Matroska
Версия формата : Version 1
Размер файла : 305 Мбайт
Продолжительность : 4 м. 16 с.
Общий поток : 9989 Кбит/сек
Дата кодирования : UTC 2017-08-05 14:43:21
Библиотека кодирования : WonderShare Matroska Muxer
Видео
Идентификатор : 1
Формат : AVC
Формат/Информация : Advanced Video Codec
Профиль формата : Main@L4.1
Параметр CABAC формата : Да
Параметр ReFrames формата : 2 кадра
Идентификатор кодека : V_MPEG4/ISO/AVC
Битрейт : 9534 Кбит/сек
Ширина : 1920 пикселей
Высота : 1080 пикселей
Соотношение сторон : 16:9
Режим частоты кадров : Переменный
Частота кадров в оригинале : 29,970 кадров/сек
Цветовое пространство : YUV
Субдискретизация насыщенности : 4:2:0
Битовая глубина : 8 бит
Тип развёртки : Прогрессивная
Default : Да
Forced : Нет
Аудио
Идентификатор : 2
Формат : MPEG Audio
Версия формата : Version 1
Профиль формата : Layer 3
Режим : Joint stereo
Идентификатор кодека : A_MPEG/L3
Идентификатор кодека/Подсказка : MP3
Продолжительность : 4 м. 16 с.
Вид битрейта : Постоянный
Битрейт : 256 Кбит/сек
Каналы : 2 канала
Частота : 44,1 КГц
Метод сжатия : С потерями
Задержка видео : -33 мс.
Размер потока : 7,83 Мбайт (3%)
Библиотека кодирования : LAME3.98.2
Default : Да
Forced : Нет
Общее
Полное имя : H:\VA - Europa Plus TOP 40 2017.08 WEB-DL [H.264,1080p-LQ]\32. L.B. ONE feat Laenz - Across The Water (Official Video).mkv
Формат : Matroska
Версия формата : Version 1
Размер файла : 351 Мбайт
Продолжительность : 4 м. 47 с.
Общий поток : 10,2 Мбит/сек
Дата кодирования : UTC 2017-08-07 10:17:25
Библиотека кодирования : WonderShare Matroska Muxer
Видео
Идентификатор : 1
Формат : AVC
Формат/Информация : Advanced Video Codec
Профиль формата : Main@L4.1
Параметр CABAC формата : Да
Параметр ReFrames формата : 2 кадра
Идентификатор кодека : V_MPEG4/ISO/AVC
Битрейт : 9781 Кбит/сек
Ширина : 1920 пикселей
Высота : 1080 пикселей
Соотношение сторон : 16:9
Режим частоты кадров : Переменный
Частота кадров в оригинале : 29,970 кадров/сек
Цветовое пространство : YUV
Субдискретизация насыщенности : 4:2:0
Битовая глубина : 8 бит
Тип развёртки : Прогрессивная
Default : Да
Forced : Нет
Аудио
Идентификатор : 2
Формат : MPEG Audio
Версия формата : Version 1
Профиль формата : Layer 3
Режим : Joint stereo
Расширение режима : MS Stereo
Идентификатор кодека : A_MPEG/L3
Идентификатор кодека/Подсказка : MP3
Продолжительность : 4 м. 47 с.
Вид битрейта : Постоянный
Битрейт : 256 Кбит/сек
Каналы : 2 канала
Частота : 44,1 КГц
Метод сжатия : С потерями
Задержка видео : -33 мс.
Размер потока : 8,76 Мбайт (2%)
Библиотека кодирования : LAME3.98.2
Default : Да
Forced : Нет
Общее
Полное имя : H:\VA - Europa Plus TOP 40 2017.08 WEB-DL [H.264,1080p-LQ]\33. Era Istrefi - Redrum feat. Felix Snow (Official Video).mkv
Формат : Matroska
Версия формата : Version 1
Размер файла : 210 Мбайт
Продолжительность : 2 м. 51 с.
Общий поток : 10,2 Мбит/сек
Дата кодирования : UTC 2017-08-05 15:07:41
Библиотека кодирования : WonderShare Matroska Muxer
Видео
Идентификатор : 1
Формат : AVC
Формат/Информация : Advanced Video Codec
Профиль формата : Main@L4.1
Параметр CABAC формата : Да
Параметр ReFrames формата : 2 кадра
Идентификатор кодека : V_MPEG4/ISO/AVC
Битрейт : 9779 Кбит/сек
Ширина : 1920 пикселей
Высота : 1080 пикселей
Соотношение сторон : 16:9
Режим частоты кадров : Переменный
Частота кадров в оригинале : 29,970 кадров/сек
Цветовое пространство : YUV
Субдискретизация насыщенности : 4:2:0
Битовая глубина : 8 бит
Тип развёртки : Прогрессивная
Default : Да
Forced : Нет
Аудио
Идентификатор : 2
Формат : MPEG Audio
Версия формата : Version 1
Профиль формата : Layer 3
Режим : Joint stereo
Идентификатор кодека : A_MPEG/L3
Идентификатор кодека/Подсказка : MP3
Продолжительность : 2 м. 51 с.
Вид битрейта : Постоянный
Битрейт : 256 Кбит/сек
Каналы : 2 канала
Частота : 44,1 КГц
Метод сжатия : С потерями
Задержка видео : -33 мс.
Размер потока : 5,25 Мбайт (3%)
Библиотека кодирования : LAME3.98.2
Default : Да
Forced : Нет
Общее
Полное имя : H:\VA - Europa Plus TOP 40 2017.08 WEB-DL [H.264,1080p-LQ]\34. Imagine Dragons - Believer.mkv
Формат : Matroska
Версия формата : Version 1
Размер файла : 263 Мбайт
Продолжительность : 3 м. 36 с.
Общий поток : 10,2 Мбит/сек
Дата кодирования : UTC 2017-08-05 15:09:10
Библиотека кодирования : WonderShare Matroska Muxer
Видео
Идентификатор : 1
Формат : AVC
Формат/Информация : Advanced Video Codec
Профиль формата : Main@L4.1
Параметр CABAC формата : Да
Параметр ReFrames формата : 2 кадра
Идентификатор кодека : V_MPEG4/ISO/AVC
Битрейт : 9725 Кбит/сек
Ширина : 1920 пикселей
Высота : 1080 пикселей
Соотношение сторон : 16:9
Режим частоты кадров : Переменный
Частота кадров в оригинале : 29,970 кадров/сек
Цветовое пространство : YUV
Субдискретизация насыщенности : 4:2:0
Битовая глубина : 8 бит
Тип развёртки : Прогрессивная
Default : Да
Forced : Нет
Аудио
Идентификатор : 2
Формат : MPEG Audio
Версия формата : Version 1
Профиль формата : Layer 3
Режим : Joint stereo
Идентификатор кодека : A_MPEG/L3
Идентификатор кодека/Подсказка : MP3
Продолжительность : 3 м. 36 с.
Вид битрейта : Постоянный
Битрейт : 256 Кбит/сек
Каналы : 2 канала
Частота : 44,1 КГц
Метод сжатия : С потерями
Задержка видео : -33 мс.
Размер потока : 6,61 Мбайт (3%)
Библиотека кодирования : LAME3.98.2
Default : Да
Forced : Нет
Общее
Полное имя : H:\VA - Europa Plus TOP 40 2017.08 WEB-DL [H.264,1080p-LQ]\35. Bebe Rexha - I Got You [Official Music Video].mkv
Формат : Matroska
Версия формата : Version 1
Размер файла : 239 Мбайт
Продолжительность : 3 м. 16 с.
Общий поток : 10,2 Мбит/сек
Дата кодирования : UTC 2017-08-05 15:15:16
Библиотека кодирования : WonderShare Matroska Muxer
Видео
Идентификатор : 1
Формат : AVC
Формат/Информация : Advanced Video Codec
Профиль формата : Main@L4.1
Параметр CABAC формата : Да
Параметр ReFrames формата : 2 кадра
Идентификатор кодека : V_MPEG4/ISO/AVC
Битрейт : 9732 Кбит/сек
Ширина : 1920 пикселей
Высота : 800 пикселей
Соотношение сторон : 2,40:1
Режим частоты кадров : Переменный
Частота кадров в оригинале : 29,970 кадров/сек
Цветовое пространство : YUV
Субдискретизация насыщенности : 4:2:0
Битовая глубина : 8 бит
Тип развёртки : Прогрессивная
Default : Да
Forced : Нет
Аудио
Идентификатор : 2
Формат : MPEG Audio
Версия формата : Version 1
Профиль формата : Layer 3
Режим : Joint stereo
Идентификатор кодека : A_MPEG/L3
Идентификатор кодека/Подсказка : MP3
Продолжительность : 3 м. 16 с.
Вид битрейта : Постоянный
Битрейт : 256 Кбит/сек
Каналы : 2 канала
Частота : 44,1 КГц
Метод сжатия : С потерями
Задержка видео : -33 мс.
Размер потока : 6,01 Мбайт (3%)
Библиотека кодирования : LAME3.98.2
Default : Да
Forced : Нет
Общее
Полное имя : H:\VA - Europa Plus TOP 40 2017.08 WEB-DL [H.264,1080p-LQ]\36. LP - Other People (Swanky Tunes & Going Deeper Remix)(SD Video Edit).mkv
Формат : Matroska
Версия формата : Version 1
Размер файла : 135 Мбайт
Продолжительность : 3 м. 35 с.
Общий поток : 5242 Кбит/сек
Дата кодирования : UTC 2017-08-05 15:17:58
Библиотека кодирования : WonderShare Matroska Muxer
Видео
Идентификатор : 1
Формат : AVC
Формат/Информация : Advanced Video Codec
Профиль формата : Main@L4.1
Параметр CABAC формата : Да
Параметр ReFrames формата : 2 кадра
Параметр GOP формата : M=3, N=25
Идентификатор кодека : V_MPEG4/ISO/AVC
Битрейт : 4882 Кбит/сек
Ширина : 1920 пикселей
Высота : 1080 пикселей
Соотношение сторон : 16:9
Режим частоты кадров : Переменный
Частота кадров в оригинале : 29,970 кадров/сек
Цветовое пространство : YUV
Субдискретизация насыщенности : 4:2:0
Битовая глубина : 8 бит
Тип развёртки : Прогрессивная
Default : Да
Forced : Нет
Аудио
Идентификатор : 2
Формат : MPEG Audio
Версия формата : Version 1
Профиль формата : Layer 3
Режим : Joint stereo
Идентификатор кодека : A_MPEG/L3
Идентификатор кодека/Подсказка : MP3
Продолжительность : 3 м. 35 с.
Вид битрейта : Постоянный
Битрейт : 256 Кбит/сек
Каналы : 2 канала
Частота : 44,1 КГц
Метод сжатия : С потерями
Задержка видео : -33 мс.
Размер потока : 6,59 Мбайт (5%)
Библиотека кодирования : LAME3.98.2
Default : Да
Forced : Нет
Общее
Полное имя : H:\VA - Europa Plus TOP 40 2017.08 WEB-DL [H.264,1080p-LQ]\37. Jonas Blue - Mama ft. William Singe.mkv
Формат : Matroska
Версия формата : Version 1
Размер файла : 220 Мбайт
Продолжительность : 3 м. 3 с.
Общий поток : 10,0 Мбит/сек
Дата кодирования : UTC 2017-08-05 15:22:54
Библиотека кодирования : WonderShare Matroska Muxer
Видео
Идентификатор : 1
Формат : AVC
Формат/Информация : Advanced Video Codec
Профиль формата : Main@L4.1
Параметр CABAC формата : Да
Параметр ReFrames формата : 2 кадра
Параметр GOP формата : M=3, N=25
Идентификатор кодека : V_MPEG4/ISO/AVC
Битрейт : 9584 Кбит/сек
Ширина : 1920 пикселей
Высота : 1080 пикселей
Соотношение сторон : 16:9
Режим частоты кадров : Переменный
Частота кадров в оригинале : 29,970 кадров/сек
Цветовое пространство : YUV
Субдискретизация насыщенности : 4:2:0
Битовая глубина : 8 бит
Тип развёртки : Прогрессивная
Default : Да
Forced : Нет
Аудио
Идентификатор : 2
Формат : MPEG Audio
Версия формата : Version 1
Профиль формата : Layer 3
Режим : Joint stereo
Идентификатор кодека : A_MPEG/L3
Идентификатор кодека/Подсказка : MP3
Продолжительность : 3 м. 3 с.
Вид битрейта : Постоянный
Битрейт : 256 Кбит/сек
Каналы : 2 канала
Частота : 44,1 КГц
Метод сжатия : С потерями
Задержка видео : -33 мс.
Размер потока : 5,60 Мбайт (3%)
Библиотека кодирования : LAME3.98.2
Default : Да
Forced : Нет
Общее
Полное имя : H:\VA - Europa Plus TOP 40 2017.08 WEB-DL [H.264,1080p-LQ]\38. Ben Delay - I Never Felt So Right (Official Video HD).mkv
Формат : Matroska
Версия формата : Version 1
Размер файла : 231 Мбайт
Продолжительность : 3 м. 10 с.
Общий поток : 10,2 Мбит/сек
Дата кодирования : UTC 2017-08-05 15:38:16
Библиотека кодирования : WonderShare Matroska Muxer
Видео
Идентификатор : 1
Формат : AVC
Формат/Информация : Advanced Video Codec
Профиль формата : Main@L4.1
Параметр CABAC формата : Да
Параметр ReFrames формата : 2 кадра
Идентификатор кодека : V_MPEG4/ISO/AVC
Битрейт : 9715 Кбит/сек
Ширина : 1920 пикселей
Высота : 1080 пикселей
Соотношение сторон : 16:9
Режим частоты кадров : Переменный
Частота кадров в оригинале : 29,970 кадров/сек
Цветовое пространство : YUV
Субдискретизация насыщенности : 4:2:0
Битовая глубина : 8 бит
Тип развёртки : Прогрессивная
Default : Да
Forced : Нет
Аудио
Идентификатор : 2
Формат : MPEG Audio
Версия формата : Version 1
Профиль формата : Layer 3
Режим : Joint stereo
Идентификатор кодека : A_MPEG/L3
Идентификатор кодека/Подсказка : MP3
Продолжительность : 3 м. 10 с.
Вид битрейта : Постоянный
Битрейт : 256 Кбит/сек
Каналы : 2 канала
Частота : 44,1 КГц
Метод сжатия : С потерями
Задержка видео : -33 мс.
Размер потока : 5,82 Мбайт (3%)
Библиотека кодирования : LAME3.98.2
Default : Да
Forced : Нет
Общее
Полное имя : H:\VA - Europa Plus TOP 40 2017.08 WEB-DL [H.264,1080p-LQ]\39. Sean Paul - No Lie ft. Dua Lipa.mkv
Формат : Matroska
Версия формата : Version 1
Размер файла : 272 Мбайт
Продолжительность : 3 м. 48 с.
Общий поток : 9995 Кбит/сек
Дата кодирования : UTC 2017-08-05 15:38:56
Библиотека кодирования : WonderShare Matroska Muxer
Видео
Идентификатор : 1
Формат : AVC
Формат/Информация : Advanced Video Codec
Профиль формата : Main@L4.1
Параметр CABAC формата : Да
Параметр ReFrames формата : 2 кадра
Параметр GOP формата : M=3, N=25
Идентификатор кодека : V_MPEG4/ISO/AVC
Битрейт : 9540 Кбит/сек
Ширина : 1920 пикселей
Высота : 1080 пикселей
Соотношение сторон : 16:9
Режим частоты кадров : Переменный
Частота кадров в оригинале : 29,970 кадров/сек
Цветовое пространство : YUV
Субдискретизация насыщенности : 4:2:0
Битовая глубина : 8 бит
Тип развёртки : Прогрессивная
Default : Да
Forced : Нет
Аудио
Идентификатор : 2
Формат : MPEG Audio
Версия формата : Version 1
Профиль формата : Layer 3
Режим : Joint stereo
Идентификатор кодека : A_MPEG/L3
Идентификатор кодека/Подсказка : MP3
Продолжительность : 3 м. 48 с.
Вид битрейта : Постоянный
Битрейт : 256 Кбит/сек
Каналы : 2 канала
Частота : 44,1 КГц
Метод сжатия : С потерями
Задержка видео : -33 мс.
Размер потока : 6,97 Мбайт (3%)
Библиотека кодирования : LAME3.98.2
Default : Да
Forced : Нет
Общее
Полное имя : H:\VA - Europa Plus TOP 40 2017.08 WEB-DL [H.264,1080p-LQ]\40. Ofenbach - Be Mine (Official Video).mkv
Формат : Matroska
Версия формата : Version 1
Размер файла : 210 Мбайт
Продолжительность : 2 м. 55 с.
Общий поток : 10,1 Мбит/сек
Дата кодирования : UTC 2017-08-05 15:46:39
Библиотека кодирования : WonderShare Matroska Muxer
Видео
Идентификатор : 1
Формат : AVC
Формат/Информация : Advanced Video Codec
Профиль формата : Main@L4.1
Параметр CABAC формата : Да
Параметр ReFrames формата : 2 кадра
Идентификатор кодека : V_MPEG4/ISO/AVC
Битрейт : 9609 Кбит/сек
Ширина : 1920 пикселей
Высота : 1080 пикселей
Соотношение сторон : 16:9
Режим частоты кадров : Переменный
Частота кадров в оригинале : 29,970 кадров/сек
Цветовое пространство : YUV
Субдискретизация насыщенности : 4:2:0
Битовая глубина : 8 бит
Тип развёртки : Прогрессивная
Default : Да
Forced : Нет
Аудио
Идентификатор : 2
Формат : MPEG Audio
Версия формата : Version 1
Профиль формата : Layer 3
Режим : Joint stereo
Идентификатор кодека : A_MPEG/L3
Идентификатор кодека/Подсказка : MP3
Продолжительность : 2 м. 55 с.
Вид битрейта : Постоянный
Битрейт : 256 Кбит/сек
Каналы : 2 канала
Частота : 44,1 КГц
Метод сжатия : С потерями
Задержка видео : -33 мс.
Размер потока : 5,35 Мбайт (3%)
Библиотека кодирования : LAME3.98.2
Default : Да
Forced : Нет
Общее
Полное имя : H:\VA - Europa Plus TOP 40 2017.08 WEB-DL [H.264,1080p-LQ]\Info.txt
Размер файла : 129 Кбайт
Скриншоты:




Показать сообщения:    

Текущее время: 14-Дек 19:17

Часовой пояс: UTC + 11


Вы не можете начинать темы
Вы не можете отвечать на сообщения
Вы не можете редактировать свои сообщения
Вы не можете удалять свои сообщения
Вы не можете голосовать в опросах
Вы не можете прикреплять файлы к сообщениям
Вы не можете скачивать файлы

Сайт не предоставляет электронные версии произведений, а занимается лишь коллекционированием и каталогизацией ссылок, присылаемых и публикуемых на форуме нашими читателями. Если вы являетесь правообладателем какого-либо представленного материала и не желаете, чтобы ссылка на него находилась в нашем каталоге, свяжитесь с нами, и мы незамедлительно удалим ее. Файлы для обмена на трекере предоставлены пользователями сайта, и администрация не несет ответственности за их содержание. Просьба не заливать файлы, защищенные авторскими правами, а также файлы нелегального содержания!