+100


Топ за 24 часа
 
 

[Цитировать]

- Фантастические твари и где они обитают / Fantastic Beasts and Where to Find Them (2016) BDRip -Производство: Великобритания, США
Жанр: Фэнтези, Приключения, Семейный
Режиссер: Дэвид Йейтс
Актеры: Эдди Редмэйн, Кэтрин Уотерстон, Дэн Фоглер Элисон Судол, Колин Фаррелл, Кармен Эджого Эзра Миллер, Саманта Мортон, Рон Перлман, Джон Войт
Описание:
Поиск и изучение необычайных волшебных существ
приводят магозоолога Ньюта Саламандера в Нью-Йорк. Скорее всего,
он отбыл бы на поезде дальше, если бы не «немаг» (так в Америке называют
магглов) по имени Якоб, оставленный в неположенном месте магический чемодан
и побег из него фантастических животных Ньюта.

Возраст: 12+ (зрителям, достигшим 12 лет)
Рейтинг MPAA: PG-13 (детям до 13 лет просмотр нежелателен)
Продолжительность: 02:12:52
Качество видео: BDRip
Перевод: Дублированный
Субтитры: Русские (полные, форсированные)
Видео: HEVC/H.265, 1920x800, ~5125 Kbps, 10 bit
Аудио 1: Русский, AC3, 6 ch, 384 Kbps, 48,0 KHz
Аудио 2:Английский, АС3, 6 ch, 384 Kbps, 48,0 KHz

MediaInfo

Общее
Уникальный идентификатор : 187724732052944851679731269794699992525 (0x8D3A77E0F45BE93098EFE8ACD42CDDCD)
Полное имя : F:\ФИЛЬМЫ\Фантастические твари и где они обитают. 2016. 1080р. HEVC. (1).mkv
Формат : Matroska
Версия формата : Version 4 / Version 2
Размер файла : 5,58 Гбайт
Продолжительность : 2 ч. 12 м.
Общий поток : 6013 Кбит/сек
Название фильма : Fantastic Beasts and Where to Find Them (2016) - Release for ULTRAHDCLUB
Дата кодирования : UTC 2017-07-24 18:01:55
Программа кодирования : mkvmerge v12.0.0 ('Trust / Lust') 64bit
Библиотека кодирования : libebml v1.3.4 + libmatroska v1.4.5
Обложка : Yes
Видео
Идентификатор : 1
Формат : HEVC
Формат/Информация : High Efficiency Video Coding
Профиль формата : Main 10@L4.0
Идентификатор кодека : V_MPEGH/ISO/HEVC
Продолжительность : 2 ч. 12 м.
Битрейт : 5125 Кбит/сек
Ширина : 1920 пикселей
Высота : 800 пикселей
Соотношение сторон : 2,40:1
Режим частоты кадров : Постоянный
Частота кадров : 23,976 кадра/сек
Цветовое пространство : YUV
Субдискретизация насыщенности : 4:2:0
Битовая глубина : 10 бит
Бит/(Пиксели*Кадры) : 0.139
Размер потока : 4,76 Гбайт (85%)
Заголовок : Fantastic Beasts and Where to Find Them (2016) - Release for ULTRAHDCLUB
Язык : English
Default : Да
Forced : Нет
DURATION : 02:12:52.340000000
NUMBER_OF_FRAMES : 191145
NUMBER_OF_BYTES : 5224191685
_STATISTICS_WRITING_APP : mkvmerge v12.0.0 ('Trust / Lust') 64bit
_STATISTICS_WRITING_DATE_UTC : 2017-07-24 18:01:55
_STATISTICS_TAGS : BPS DURATION NUMBER_OF_FRAMES NUMBER_OF_BYTES
Аудио #1
Идентификатор : 2
Формат : AC-3
Формат/Информация : Audio Coding 3
Расширение режима : CM (complete main)
Параметр Endianness формата : Big
Идентификатор кодека : A_AC3
Продолжительность : 2 ч. 12 м.
Вид битрейта : Постоянный
Битрейт : 384 Кбит/сек
Каналы : 6 каналов
Расположение каналов : Front: L C R, Side: L R, LFE
Частота : 48,0 КГц
Битовая глубина : 16 бит
Метод сжатия : С потерями
Размер потока : 365 Мбайт (6%)
Заголовок : AC3 5.1 @ 448 kbps - Blu-ray CEE
Язык : Russian
Default : Да
Forced : Нет
DURATION : 02:12:52.352000000
NUMBER_OF_FRAMES : 249136
NUMBER_OF_BYTES : 382672896
_STATISTICS_WRITING_APP : mkvmerge v12.0.0 ('Trust / Lust') 64bit
_STATISTICS_WRITING_DATE_UTC : 2017-07-24 18:01:55
_STATISTICS_TAGS : BPS DURATION NUMBER_OF_FRAMES NUMBER_OF_BYTES
Аудио #2
Идентификатор : 3
Формат : AC-3
Формат/Информация : Audio Coding 3
Расширение режима : CM (complete main)
Параметр Endianness формата : Big
Идентификатор кодека : A_AC3
Продолжительность : 2 ч. 12 м.
Вид битрейта : Постоянный
Битрейт : 384 Кбит/сек
Каналы : 6 каналов
Расположение каналов : Front: L C R, Side: L R, LFE
Частота : 48,0 КГц
Битовая глубина : 16 бит
Метод сжатия : С потерями
Размер потока : 365 Мбайт (6%)
Заголовок : AC3 5.1 @ 448 kbps
Язык : English
Default : Нет
Forced : Нет
DURATION : 02:12:52.352000000
NUMBER_OF_FRAMES : 249136
NUMBER_OF_BYTES : 382672896
_STATISTICS_WRITING_APP : mkvmerge v12.0.0 ('Trust / Lust') 64bit
_STATISTICS_WRITING_DATE_UTC : 2017-07-24 18:01:55
_STATISTICS_TAGS : BPS DURATION NUMBER_OF_FRAMES NUMBER_OF_BYTES
Текст #1
Идентификатор : 4
Формат : UTF-8
Идентификатор кодека : S_TEXT/UTF8
Идентификатор кодека/Информация : UTF-8 Plain Text
Заголовок : Forced, iTunes
Язык : Russian
Default : Да
Forced : Да
DURATION : 02:11:56.283000000
NUMBER_OF_FRAMES : 41
NUMBER_OF_BYTES : 2519
_STATISTICS_WRITING_APP : mkvmerge v12.0.0 ('Trust / Lust') 64bit
_STATISTICS_WRITING_DATE_UTC : 2017-07-24 18:01:55
_STATISTICS_TAGS : BPS DURATION NUMBER_OF_FRAMES NUMBER_OF_BYTES
Текст #2
Идентификатор : 5
Формат : UTF-8
Идентификатор кодека : S_TEXT/UTF8
Идентификатор кодека/Информация : UTF-8 Plain Text
Заголовок : iTunes
Язык : Russian
Default : Нет
Forced : Нет
DURATION : 02:12:32.111000000
NUMBER_OF_FRAMES : 1317
NUMBER_OF_BYTES : 65143
_STATISTICS_WRITING_APP : mkvmerge v12.0.0 ('Trust / Lust') 64bit
_STATISTICS_WRITING_DATE_UTC : 2017-07-24 18:01:55
_STATISTICS_TAGS : BPS DURATION NUMBER_OF_FRAMES NUMBER_OF_BYTES
Меню
00:00:00.000 : :00:00:00.000
00:08:40.270 : :00:08:40.270
00:18:55.718 : :00:18:55.718
00:28:23.660 : :00:28:23.660
00:38:34.187 : :00:38:34.187
00:48:08.594 : :00:48:08.594
00:58:19.246 : :00:58:19.246
01:09:14.692 : :01:09:14.692
01:17:26.392 : :01:17:26.392
01:29:33.660 : :01:29:33.660
01:38:02.085 : :01:38:02.085
01:50:27.871 : :01:50:27.871
01:59:04.471 : :01:59:04.471
02:04:11.944 : :02:04:11.944
Скриншоты:




Показать сообщения:    

Текущее время: 20-Июн 11:17

Часовой пояс: UTC + 11


Вы не можете начинать темы
Вы не можете отвечать на сообщения
Вы не можете редактировать свои сообщения
Вы не можете удалять свои сообщения
Вы не можете голосовать в опросах
Вы не можете прикреплять файлы к сообщениям
Вы не можете скачивать файлы

Сайт не предоставляет электронные версии произведений, а занимается лишь коллекционированием и каталогизацией ссылок, присылаемых и публикуемых на форуме нашими читателями. Если вы являетесь правообладателем какого-либо представленного материала и не желаете, чтобы ссылка на него находилась в нашем каталоге, свяжитесь с нами, и мы незамедлительно удалим ее. Файлы для обмена на трекере предоставлены пользователями сайта, и администрация не несет ответственности за их содержание. Просьба не заливать файлы, защищенные авторскими правами, а также файлы нелегального содержания!