+100


 

[Цитировать]

-Интервью с Путиным / The Putin Interviews (2017) WEBRip [H.264/1080p-LQ] (части 1-4 из 4)-Производство: США, Ixtlan Productions
Жанр: Документальный, биография, политика
Режиссер: Оливер Стоун
Участники: Владимир Путин, Оливер Стоун
Описание:
Интервью с Путиным, которое провел знаменитый режиссер Оливер Стоун. Как утверждает автор интервью: он преследовал цель показать настоящего Путина, показать западному народу, что ни он, ни сама Россия, никто не является угрозой для США и Запада в целом. Он утверждает, что нагнетание военной обстановки исходит непосредственно от США, а России просто приходится предпринимать ответные меры, чтобы защитить свою страну.

Продолжительность: ~00:58:00 серия
Качество видео: WEBRip
Перевод: Двуголосый закадровый, любительский (Sunshine Studio)
Субтитры: Английские (вшитые, не отключаемые)
Видео: AVC/H.264, 1920x1080 (16:9), ~5610 Kbps
Аудио #1: AC3, 2 ch, 192 kbps - русский, двуголосый закадровый
Аудио #2: AC3, 2 ch, 192 kbps - английский

MediaInfo

Общее
Уникальный идентификатор                 : 181359297483194903057390838238514604154 (0x887087B9534FEE238938915B28F1687A)
Полное имя                               : N:\Интервью с Путиным. The Putin Interviews (2017) Sunshine Studio\Интервью с Путиным (часть 1).mkv
Формат                                   : Matroska
Версия формата                           : Version 4 / Version 2
Размер файла                             : 2,49 Гбайт
Продолжительность                        : 58 м. 21 с.
Общий поток                              : 6116 Кбит/сек
Дата кодирования                         : UTC 2017-06-14 16:59:21
Программа кодирования                    : mkvmerge v6.9.1 ('Blue Panther') 64bit built on Apr 18 2014 18:23:38
Библиотека кодирования                   : libebml v1.3.0 + libmatroska v1.4.1
Видео
Идентификатор                            : 1
Формат                                   : AVC
Формат/Информация                        : Advanced Video Codec
Профиль формата                          : High@L4
Параметр CABAC формата                   : Да
Параметр ReFrames формата                : 4 кадра
Идентификатор кодека                     : V_MPEG4/ISO/AVC
Продолжительность                        : 58 м. 21 с.
Битрейт                                  : 5610 Кбит/сек
Ширина                                   : 1920 пикселей
Высота                                   : 1080 пикселей
Соотношение сторон                       : 16:9
Режим частоты кадров                     : Постоянный
Частота кадров                           : 23,976 (24000/1001) кадра/сек
Цветовое пространство                    : YUV
Субдискретизация насыщенности            : 4:2:0
Битовая глубина                          : 8 бит
Тип развёртки                            : Прогрессивная
Бит/(Пиксели*Кадры)                      : 0.113
Размер потока                            : 2,29 Гбайт (92%)
Язык                                     : English
Default                                  : Да
Forced                                   : Нет
Аудио #1
Идентификатор                            : 2
Формат                                   : AC-3
Формат/Информация                        : Audio Coding 3
Параметр Endianness формата              : Big
Идентификатор кодека                     : A_AC3
Продолжительность                        : 58 м. 21 с.
Вид битрейта                             : Постоянный
Битрейт                                  : 192 Кбит/сек
Каналы                                   : 2 канала
Расположение каналов                     : Front: L R
Частота                                  : 48,0 КГц
Частота кадров                           : 31,250 кадров/сек (1536 spf)
Битовая глубина                          : 16 бит
Метод сжатия                             : С потерями
Размер потока                            : 80,2 Мбайт (3%)
Заголовок                                : Sunshine
Язык                                     : Russian
ServiceKind/String                       : Complete Main
Default                                  : Да
Forced                                   : Нет
Аудио #2
Идентификатор                            : 3
Формат                                   : AC-3
Формат/Информация                        : Audio Coding 3
Параметр Endianness формата              : Big
Идентификатор кодека                     : A_AC3
Продолжительность                        : 58 м. 21 с.
Вид битрейта                             : Постоянный
Битрейт                                  : 192 Кбит/сек
Каналы                                   : 2 канала
Расположение каналов                     : Front: L R
Частота                                  : 48,0 КГц
Частота кадров                           : 31,250 кадров/сек (1536 spf)
Битовая глубина                          : 16 бит
Метод сжатия                             : С потерями
Размер потока                            : 80,2 Мбайт (3%)
Заголовок                                : original
Язык                                     : English
ServiceKind/String                       : Complete Main
Default                                  : Нет
Forced                                   : Нет
Текст
Идентификатор                            : 4
Формат                                   : UTF-8
Идентификатор кодека                     : S_TEXT/UTF8
Идентификатор кодека/Информация          : UTF-8 Plain Text
Язык                                     : English
Default                                  : Нет
Forced                                   : Нет
Скриншоты:




Показать сообщения:    

Текущее время: 21-Окт 08:49

Часовой пояс: UTC + 11


Вы не можете начинать темы
Вы не можете отвечать на сообщения
Вы не можете редактировать свои сообщения
Вы не можете удалять свои сообщения
Вы не можете голосовать в опросах
Вы не можете прикреплять файлы к сообщениям
Вы не можете скачивать файлы

Сайт не предоставляет электронные версии произведений, а занимается лишь коллекционированием и каталогизацией ссылок, присылаемых и публикуемых на форуме нашими читателями. Если вы являетесь правообладателем какого-либо представленного материала и не желаете, чтобы ссылка на него находилась в нашем каталоге, свяжитесь с нами, и мы незамедлительно удалим ее. Файлы для обмена на трекере предоставлены пользователями сайта, и администрация не несет ответственности за их содержание. Просьба не заливать файлы, защищенные авторскими правами, а также файлы нелегального содержания!