+100


 

[Цитировать]

-Папаши / Dads
(Сезон 1 полный (18 серий)) (2013) WEB-DLRip
(Несмертельное оружие)
-«Two best friends. One dad situation.»-Год выпуска: 2013
Страна: США
Жанр: Комедия
Перевод: Многоголосый закадровый - Несмертельное оружие
Режиссер: Марк Сендроуски
Актеры: Сет Грин, Джованни Рибизи, Мартин Мулл, Питер Ригерт, Ванесса Лаше, Бренда Сонг, Тонита Кастро, Сара Болдуин, Ивэн Чунг, Виктор Дж. Хо и др.
Описание:
История о двух друзьях детства, которые уже вроде бы не молодые и довольно успешные. Но однажды в их жизни всё переворачивается, когда к ним приезжают их отцы…
СЭМПЛ
Продолжительность: ~00:22:00 серия
Качество видео: WEB-DLRip
Формат: AVI
Видео: 720x400 (16:9), 23.976 fps, XviD ~1817 kbps, ~0.263 bit/pixel
Аудио Rus: 48 kHz, AC3 Dolby Digital, 2 ch, 192 kbps
Аудио Eng: 48 kHz, AC3 Dolby Digital, 2 ch, 192 kbps
Релиз: Несмертельное оружие
Озвучка: Михаил Литвин, Дмитрий Лунёв, Павел Киселёв, Олег Варганов, Вероника Стригунова, Ника Ленина, Артемий Мирон и Кристиан Бодров

Тех. данные (MI)

Общее
Dads.S01E01.WEB-DLRip.Rus.Eng.avi
Формат : AVI
Формат/Информация : Audio Video Interleave
Размер файла : 350 Мбайт
Продолжительность : 22 м.
Общий поток : 2215 Кбит/сек
Программа кодирования : VirtualDubModRus 1.5.10.2 (build 2542/release)
Библиотека кодирования : VirtualDubMod build 2542/release
Видео
Идентификатор : 0
Формат : MPEG-4 Visual
Профиль формата : Advanced Simple@L5
Параметр BVOP формата : 2
Параметр QPel формата : Нет
Параметр GMC формата : Без точки перехода
Параметр матрицы формата : Default (MPEG)
Идентификатор кодека : XVID
Идентификатор кодека/Подсказка : XviD
Продолжительность : 22 м.
Битрейт : 1817 Кбит/сек
Ширина : 720 пикселей
Высота : 400 пикселей
Соотношение сторон : 16:9
Частота кадров : 23,976 кадра/сек
Цветовое пространство : YUV
Субдискретизация насыщенности : 4:2:0
Битовая глубина : 8 бит
Тип развёртки : Прогрессивная
Метод сжатия : С потерями
Бит/(Пиксели*Кадры) : 0.263
Размер потока : 287 Мбайт (82%)
Библиотека кодирования : XviD 1.2.1 (UTC 2008-12-04)
Аудио #1
Идентификатор : 1
Формат : AC-3
Формат/Информация : Audio Coding 3
Расширение режима : CM (complete main)
Идентификатор кодека : 2000
Продолжительность : 22 м.
Вид битрейта : Постоянный
Битрейт : 192 Кбит/сек
Каналы : 2 канала
Расположение каналов : Front: L R
Частота : 48,0 КГц
Битовая глубина : 16 бит
Метод сжатия : С потерями
Размер потока : 30,3 Мбайт (9%)
Выравнивание : Разделение по промежуткам
Продолжительность промежутка : 42 мс. (1,00 видеокадр)
Время предзагрузки промежутка : 500 мс.
Аудио #2
Идентификатор : 2
Формат : AC-3
Формат/Информация : Audio Coding 3
Расширение режима : CM (complete main)
Идентификатор кодека : 2000
Продолжительность : 22 м.
Вид битрейта : Постоянный
Битрейт : 192 Кбит/сек
Каналы : 2 канала
Расположение каналов : Front: L R
Частота : 48,0 КГц
Битовая глубина : 16 бит
Метод сжатия : С потерями
Размер потока : 30,3 Мбайт (9%)
Выравнивание : Разделение по промежуткам
Продолжительность промежутка : 42 мс. (1,00 видеокадр)
Время предзагрузки промежутка : 500 мс.

Список серий

01. Pilot / Пилот
02. Heckuva Job, Brownie / Чертовы кексики
03. Clean on Me / Приберись у меня
04. Funny Gir / Комедиантка
05. Oldfinger / Олдфингер
06. My Dad's Hotter Than Your Dad / Мой папа симпатичнее, чем твой папа
07. Foul Play / Игра не по правилам
08. Doubles Trouble / Двойные неприятности
09. Comic Book Issues / Комиксы
10. Dad Abuse / Жестокое обращение
11. The Glitch That Stole Christmas / Глюк - похититель Рождества
12. Mister Edna / Мистер Эдна
13. Eli Nightingale / Илай Найтингейл
14. Bully Gene / Задира Джин
15. Baby Face / Лицо младенца
16. Warner’s Got it Made / Уорнер разберётся
17. Enemies of Bill / Враги Билла
18. Have a Heart... Attack! / Сердечного приступа вам!

Внимание! Раздача ведётся путём добавления новых серий

Внимание! Раздача ведётся путём добавления новых серий; при каждом добавлении создаётся новый торрент.
Чтобы начать докачку новой серии, пользователям необходимо сделать следующее:
1. Остановить скачивание;
2. Удалить старый торрент у себя из клиента (старые серии удалять не надо);
3. Скачать новый торрент и запустить его у себя в клиенте вместо старого, при этом указать клиенту путь в старую папку куда и должно происходить скачивание новых серий. Ваш клиент при этом должен произвести хеширование (проверку) старой папки и будет докачивать только те серии, которых у вас ещё нет. Старые серии при этом не удаляются, а продолжают раздаваться! Eсли вы уже удалили старые серии, то предотвратить повторную закачку старых серий можно, отжав галочку в соответствующих местах при запуске нового торрента.
Скриншоты




Показать сообщения:    

Текущее время: 11-Дек 13:12

Часовой пояс: UTC + 11


Вы не можете начинать темы
Вы не можете отвечать на сообщения
Вы не можете редактировать свои сообщения
Вы не можете удалять свои сообщения
Вы не можете голосовать в опросах
Вы не можете прикреплять файлы к сообщениям
Вы не можете скачивать файлы

Сайт не предоставляет электронные версии произведений, а занимается лишь коллекционированием и каталогизацией ссылок, присылаемых и публикуемых на форуме нашими читателями. Если вы являетесь правообладателем какого-либо представленного материала и не желаете, чтобы ссылка на него находилась в нашем каталоге, свяжитесь с нами, и мы незамедлительно удалим ее. Файлы для обмена на трекере предоставлены пользователями сайта, и администрация не несет ответственности за их содержание. Просьба не заливать файлы, защищенные авторскими правами, а также файлы нелегального содержания!