+100


Топ за 24 часа
 
 

[Цитировать]

-Предместье / The 'burbs (1989) BDRip [H.264]- Год выпуска: 1989
Страна: США
Студия: Imagine Entertainment
Жанр: Ужасы, Комедия, Детектив
Описание фильма:
Ленивой умиротворенной жизни в предместье, где решил отдохнуть наш герой Рэй Питерсон, пришел конец! Рэй наивно хотел расслабиться недельку, флегматично побродить в пижаме и почитать газеты. Но не тут-то было: отдых превращается в непрекращающийся кошмар! В соседнем доме поселились странные люди по фамилии Клопек, которые ни с кем не общаются и никогда не спят! По ночам из их погреба слышатся странные звуки! В предместье, где каждый знает всю подноготную другого, — эти явления из ряда вон выходящие! Ну, а после того, как в один прекрасный день исчезает местный старикан Уолтер, окрестные жители решают, что это дело рук Клопеков! Вооружившись ружьям, мощными биноклями и лопатами население предместья отправляется к зловещему дому для «прояснения» ситуации. И их ждет воистину шокирующее открытие!
Режиссер: Джо Данте
Актеры: Том Хэнкс, Брюс Дерн, Кэрри Фишер, Рик Дукомман, Кори Фельдман, Уэнди Шаал, Генри Гибсон, Брава Теодор, Кортни Гейнс, Гэйл Гордон
Продолжительность: 01:41:26
Качество видео: BDRip
Перевод: Профессиональный многоголосый / Авторский одноголосый (Алексей Михалев)

Видеокодек: H.264
Битрейт видео: ~2302 Кбит/с
Размер кадра: 1024х552
Аудио:
1. АС3, 2 ch, 192 Кбит/с - Русский
2. AC3, 2ch, 192 Кбит/с - Авторский (Алексей Михалев)
3. АС3, 2 ch, 384 Кбит/с - Английский
Сэмпл: Ссылка

MediaInfo:

Общее
Уникальный идентификатор : 194124935325293238815907293309283617021 (0x920B1A434E90F125A5E77D2F9C0C48FD)
Полное имя : C:\Торрент\Predmestje.1989.x264.BDRip.(AVC).mkv
Формат : Matroska
Версия формата : Version 1
Размер файла : 2,18 Гбайт
Продолжительность : 1 ч. 41 м.
Общий поток : 3072 Кбит/сек
Дата кодирования : UTC 2014-05-26 07:03:06
Программа кодирования : mkvmerge v2.1.0 ('Another Place To Fall') built on Aug 19 2007 13:40:07
Библиотека кодирования : libebml v0.7.7 + libmatroska v0.8.1
Видео
Идентификатор : 1
Формат : AVC
Формат/Информация : Advanced Video Codec
Профиль формата : High@L4.1
Параметр CABAC формата : Да
Параметр ReFrames формата : 8 кадров
Идентификатор кодека : V_MPEG4/ISO/AVC
Продолжительность : 1 ч. 41 м.
Битрейт : 2302 Кбит/сек
Ширина : 1024 пикселя
Высота : 552 пикселя
Соотношение сторон : 1,85:1
Режим частоты кадров : Постоянный
Частота кадров : 23,976 кадра/сек
Цветовое пространство : YUV
Субдискретизация насыщенности : 4:2:0
Битовая глубина : 8 бит
Тип развёртки : Прогрессивная
Бит/(Пиксели*Кадры) : 0.170
Размер потока : 1,59 Гбайт (73%)
Библиотека кодирования : x264 core 125 r2200 999b753
Настройки программы : cabac=1 / ref=8 / deblock=1:-2:-2 / analyse=0x3:0x113 / me=umh / subme=9 / psy=1 / psy_rd=1.00:0.00 / mixed_ref=1 / me_range=32 / chroma_me=1 / trellis=2 / 8x8dct=1 / cqm=0 / deadzone=21,11 / fast_pskip=0 / chroma_qp_offset=-2 / threads=6 / lookahead_threads=1 / sliced_threads=0 / nr=0 / decimate=0 / interlaced=0 / bluray_compat=0 / constrained_intra=0 / bframes=8 / b_pyramid=2 / b_adapt=2 / b_bias=0 / direct=3 / weightb=1 / open_gop=0 / weightp=2 / keyint=240 / keyint_min=23 / scenecut=40 / intra_refresh=0 / rc=2pass / mbtree=0 / bitrate=2302 / ratetol=1.0 / qcomp=0.60 / qpmin=0 / qpmax=69 / qpstep=4 / cplxblur=20.0 / qblur=0.5 / ip_ratio=1.40 / pb_ratio=1.30 / aq=1:1.10
Язык : English
Default : Да
Forced : Нет
Аудио #1
Идентификатор : 2
Формат : AC-3
Формат/Информация : Audio Coding 3
Расширение режима : CM (complete main)
Параметр Endianness формата : Big
Идентификатор кодека : A_AC3
Продолжительность : 1 ч. 41 м.
Вид битрейта : Постоянный
Битрейт : 192 Кбит/сек
Каналы : 2 канала
Расположение каналов : Front: L R
Частота : 48,0 КГц
Битовая глубина : 16 бит
Метод сжатия : С потерями
Размер потока : 139 Мбайт (6%)
Заголовок : Профессиональный многоголосый
Язык : Russian
Default : Да
Forced : Нет
Аудио #2
Идентификатор : 3
Формат : AC-3
Формат/Информация : Audio Coding 3
Расширение режима : CM (complete main)
Параметр Endianness формата : Big
Идентификатор кодека : A_AC3
Продолжительность : 1 ч. 41 м.
Вид битрейта : Постоянный
Битрейт : 192 Кбит/сек
Каналы : 2 канала
Расположение каналов : Front: L R
Частота : 48,0 КГц
Битовая глубина : 16 бит
Метод сжатия : С потерями
Размер потока : 139 Мбайт (6%)
Заголовок : Авторский одноголосый (Алексей Михалев)
Язык : Russian
Default : Нет
Forced : Нет
Аудио #3
Идентификатор : 4
Формат : AC-3
Формат/Информация : Audio Coding 3
Расширение режима : CM (complete main)
Параметр Endianness формата : Big
Идентификатор кодека : A_AC3
Продолжительность : 1 ч. 41 м.
Вид битрейта : Постоянный
Битрейт : 384 Кбит/сек
Каналы : 2 канала
Расположение каналов : Front: L R
Частота : 48,0 КГц
Битовая глубина : 16 бит
Метод сжатия : С потерями
Размер потока : 279 Мбайт (13%)
Заголовок : Оригинал
Язык : English
Default : Нет
Forced : Нет
Текст
Идентификатор : 5
Формат : UTF-8
Идентификатор кодека : S_TEXT/UTF8
Идентификатор кодека/Информация : UTF-8 Plain Text
Заголовок : Английские
Язык : English
Default : Да
Forced : Нет
Меню
00:00:00.000 : en:00:00:00.000
00:03:16.530 : en:00:03:16.530
00:08:43.314 : en:00:08:43.314
00:12:23.034 : en:00:12:23.034
00:19:14.445 : en:00:19:14.445
00:24:30.886 : en:00:24:30.886
00:32:30.240 : en:00:32:30.240
00:38:28.973 : en:00:38:28.973
00:46:54.478 : en:00:46:54.478
00:51:55.321 : en:00:51:55.321
01:01:09.374 : en:01:01:09.374
01:08:28.479 : en:01:08:28.479
01:19:28.472 : en:01:19:28.472
01:25:18.405 : en:01:25:18.405
01:30:26.212 : en:01:30:26.212
01:37:22.295 : en:01:37:22.295
Скриншоты:
-




Показать сообщения:    

Текущее время: 11-Дек 18:58

Часовой пояс: UTC + 11


Вы не можете начинать темы
Вы не можете отвечать на сообщения
Вы не можете редактировать свои сообщения
Вы не можете удалять свои сообщения
Вы не можете голосовать в опросах
Вы не можете прикреплять файлы к сообщениям
Вы не можете скачивать файлы

Сайт не предоставляет электронные версии произведений, а занимается лишь коллекционированием и каталогизацией ссылок, присылаемых и публикуемых на форуме нашими читателями. Если вы являетесь правообладателем какого-либо представленного материала и не желаете, чтобы ссылка на него находилась в нашем каталоге, свяжитесь с нами, и мы незамедлительно удалим ее. Файлы для обмена на трекере предоставлены пользователями сайта, и администрация не несет ответственности за их содержание. Просьба не заливать файлы, защищенные авторскими правами, а также файлы нелегального содержания!