+100


Топ за 24 часа
 
 

[Цитировать]

-Бесы (4 серии из 4) (2014) SATRip-Год выпуска: 2014
Производство: Россия
Жанр: Драма, Детектив
Язык: Русский
Перевод: Многоголосый закадровый, профессиональный
Субтитры: Отсутствуют
Дата российской премьеры: 25 мая 2014
Режиссер: Владимир Хотиненко
Актеры: Максим Матвеев, Сергей Маковецкий, Андрей Мерзликин, Антон Шагин, Игорь Костолевский, Александр Галибин, Алексей Кирсанов, Мария Луговая
Описание фильма:
Мистический мини-сериал, это экранизация романа Ф.М. Достоевского, сама книга, долгое время была запрещена в России. Многие актеры, боясь сверхъестественных сил, даже отказывались сниматься в сериале. Все начинается в городе без названия, конец 19 века, происходит серия труднообъяснимых убийств. Главный герой, должен распутать этот клубок и найти убийц. Сама мистика, будет окружать главных героев буквально по всюду. Все следы ведут к революционерам, которые создали свое движение..

Продолжительность: 248 мин.
Качество видео: SATRip
Видеокодек: Xvid
Битрейт видео: ~1800 Кбит/сек
Размер кадра: 720x400
Аудиокодек: MP3
Битрейт аудио: 48 kHz, MPEG Layer 3, 2 ch, ~128.00 kbps avg
Сэмпл: Скачать

MediaInfo:

Общее
Полное имя : K:\БЕСЫ\Besy.01-02.SATRip.avi
Формат : AVI
Формат/Информация : Audio Video Interleave
Размер файла : 1,57 Гбайт
Продолжительность : 1 ч. 55 м.
Общий поток : 1938 Кбит/сек
Видео
Идентификатор : 0
Формат : MPEG-4 Visual
Профиль формата : Advanced Simple@L5
Параметр BVOP формата : 2
Параметр QPel формата : Нет
Параметр GMC формата : Без точки перехода
Параметр матрицы формата : Default (H.263)
Идентификатор кодека : XVID
Идентификатор кодека/Подсказка : XviD
Продолжительность : 1 ч. 55 м.
Битрейт : 1800 Кбит/сек
Ширина : 720 пикселей
Высота : 400 пикселей
Соотношение сторон : 16:9
Частота кадров : 25,000 кадров/сек
Цветовое пространство : YUV
Субдискретизация насыщенности : 4:2:0
Битовая глубина : 8 бит
Тип развёртки : Прогрессивная
Метод сжатия : С потерями
Бит/(Пиксели*Кадры) : 0.250
Размер потока : 1,46 Гбайт (93%)
Библиотека кодирования : XviD 1.2.1 (UTC 2008-12-04)
Аудио
Идентификатор : 1
Формат : MPEG Audio
Версия формата : Version 1
Профиль формата : Layer 3
Идентификатор кодека : 55
Идентификатор кодека/Подсказка : MP3
Продолжительность : 1 ч. 55 м.
Вид битрейта : Постоянный
Битрейт : 128 Кбит/сек
Каналы : 2 канала
Частота : 48,0 КГц
Метод сжатия : С потерями
Размер потока : 106 Мбайт (7%)
Выравнивание : Соединение по промежуткам
Продолжительность промежутка : 40 мс. (1,00 видеокадр)
Время предзагрузки промежутка : 504 мс.
Библиотека кодирования : LAME3.99r
Настройки программы : -m s -V 4 -q 7 -lowpass 17 -b 128
Скриншоты:




Показать сообщения:    

Текущее время: 11-Дек 18:58

Часовой пояс: UTC + 11


Вы не можете начинать темы
Вы не можете отвечать на сообщения
Вы не можете редактировать свои сообщения
Вы не можете удалять свои сообщения
Вы не можете голосовать в опросах
Вы не можете прикреплять файлы к сообщениям
Вы не можете скачивать файлы

Сайт не предоставляет электронные версии произведений, а занимается лишь коллекционированием и каталогизацией ссылок, присылаемых и публикуемых на форуме нашими читателями. Если вы являетесь правообладателем какого-либо представленного материала и не желаете, чтобы ссылка на него находилась в нашем каталоге, свяжитесь с нами, и мы незамедлительно удалим ее. Файлы для обмена на трекере предоставлены пользователями сайта, и администрация не несет ответственности за их содержание. Просьба не заливать файлы, защищенные авторскими правами, а также файлы нелегального содержания!