+100


Топ за 24 часа
 
 

[Цитировать]

-Уик-энд в Париже / Le Week-End (2013) BDRip [720p]- Год выпуска: 2013
Страна: Великобритания, Франция
Студия: Film4, Free Range Films, Le Bureau
Жанр: Комедия, Мелодрама
Описание фильма:
Супружеская пара спустя многие годы после медового месяца возвращается в Париж в попытке освежить брак. В столице Франции они встретят старого приятеля, которому удастся вдохнуть в охладевшие отношения новую жизнь.
Режиссер: Роджер Мишелл / Roger Michell
Актеры: Джим Бродбент, Линдси Дункан, Джефф Голдблюм, Игорь Гостесман, Софи-Шарлотт Юссон, Морисетт Лоренс и др.
Продолжительность: 01:33:05
Качество видео: BDRip
Перевод: Многоголосый закадровый
Cубтитры: Английский (SDH)

Видеокодек: MPEG-4 AVC/H.264
Битрейт видео: ~5205 kbps
Размер кадра: 1280x544
Аудио:
Аудио 1: 48 kHz, Dolby AC3, 6 ch, 448 kbps, русский
Аудио 2: 48 kHz, DTS, 6 ch, 1536 kbps, английский
Сэмпл: Ссылка

MediaInfo:

Общее
Полное имя : Uik-end.v.Parije.2014.P.BDRip.720p.New-Team.mkv
Формат : Matroska
Версия формата : Version 4 / Version 2
Размер файла : 4,66 Гбайт
Продолжительность : 1 ч. 33 м.
Общий поток : 7165 Кбит/сек
Дата кодирования : UTC 2014-05-24 07:03:52
Программа кодирования : mkvmerge v6.9.1 ('Blue Panther') 64bit built on Apr 18 2014 18:23:38
Библиотека кодирования : libebml v1.3.0 + libmatroska v1.4.1
Видео
Идентификатор : 1
Формат : AVC
Формат/Информация : Advanced Video Codec
Профиль формата : High@L3.1
Параметр CABAC формата : Да
Параметр ReFrames формата : 5 кадров
Идентификатор кодека : V_MPEG4/ISO/AVC
Продолжительность : 1 ч. 33 м.
Битрейт : 5205 Кбит/сек
Ширина : 1280 пикселей
Высота : 544 пикселя
Соотношение сторон : 2,35:1
Режим частоты кадров : Постоянный
Частота кадров : 24,000 кадра/сек
Цветовое пространство : YUV
Субдискретизация насыщенности : 4:2:0
Битовая глубина : 8 бит
Тип развёртки : Прогрессивная
Бит/(Пиксели*Кадры) : 0.311
Размер потока : 3,29 Гбайт (71%)
Библиотека кодирования : x264 core 140 r2377 1ca7bb9
Настройки программы : cabac=1 / ref=5 / deblock=1:0:0 / analyse=0x3:0x113 / me=umh / subme=8 / psy=1 / psy_rd=1.00:0.00 / mixed_ref=1 / me_range=16 / chroma_me=1 / trellis=1 / 8x8dct=1 / cqm=0 / deadzone=21,11 / fast_pskip=0 / chroma_qp_offset=-2 / threads=12 / lookahead_threads=2 / sliced_threads=0 / nr=0 / decimate=1 / interlaced=0 / bluray_compat=0 / constrained_intra=0 / bframes=3 / b_pyramid=2 / b_adapt=2 / b_bias=0 / direct=3 / weightb=1 / open_gop=0 / weightp=2 / keyint=250 / keyint_min=24 / scenecut=40 / intra_refresh=0 / rc_lookahead=50 / rc=2pass / mbtree=1 / bitrate=5205 / ratetol=1.0 / qcomp=0.60 / qpmin=0 / qpmax=69 / qpstep=4 / cplxblur=20.0 / qblur=0.5 / ip_ratio=1.40 / aq=1:1.00
Язык : English
Default : Да
Forced : Нет
Аудио #1
Идентификатор : 2
Формат : AC-3
Формат/Информация : Audio Coding 3
Расширение режима : CM (complete main)
Параметр Endianness формата : Big
Идентификатор кодека : A_AC3
Продолжительность : 1 ч. 33 м.
Вид битрейта : Постоянный
Битрейт : 448 Кбит/сек
Каналы : 6 каналов
Расположение каналов : Front: L C R, Side: L R, LFE
Частота : 48,0 КГц
Битовая глубина : 16 бит
Метод сжатия : С потерями
Размер потока : 298 Мбайт (6%)
Язык : Russian
Default : Да
Forced : Нет
Аудио #2
Идентификатор : 3
Формат : DTS
Формат/Информация : Digital Theater Systems
Режим : 16
Параметр Endianness формата : Big
Идентификатор кодека : A_DTS
Продолжительность : 1 ч. 33 м.
Вид битрейта : Постоянный
Битрейт : 1509 Кбит/сек
Каналы : 6 каналов
Расположение каналов : Front: L C R, Side: L R, LFE
Частота : 48,0 КГц
Битовая глубина : 24 бит
Метод сжатия : С потерями
Размер потока : 1005 Мбайт (21%)
Язык : English
Default : Нет
Forced : Нет
Текст
Идентификатор : 4
Формат : UTF-8
Идентификатор кодека : S_TEXT/UTF8
Идентификатор кодека/Информация : UTF-8 Plain Text
Язык : English
Default : Нет
Forced : Нет
Меню
00:00:00.000 : en:00:00:00.000
00:12:44.750 : en:00:12:44.750
00:22:13.792 : en:00:22:13.792
00:32:26.417 : en:00:32:26.417
00:40:45.417 : en:00:40:45.417
00:51:57.333 : en:00:51:57.333
01:01:00.083 : en:01:01:00.083
01:08:36.125 : en:01:08:36.125
01:19:33.708 : en:01:19:33.708
01:24:17.292 : en:01:24:17.292
01:26:56.750 : en:01:26:56.750
01:28:53.500 : en:01:28:53.500
Скриншоты:




Показать сообщения:    

Текущее время: 11-Дек 18:56

Часовой пояс: UTC + 11


Вы не можете начинать темы
Вы не можете отвечать на сообщения
Вы не можете редактировать свои сообщения
Вы не можете удалять свои сообщения
Вы не можете голосовать в опросах
Вы не можете прикреплять файлы к сообщениям
Вы не можете скачивать файлы

Сайт не предоставляет электронные версии произведений, а занимается лишь коллекционированием и каталогизацией ссылок, присылаемых и публикуемых на форуме нашими читателями. Если вы являетесь правообладателем какого-либо представленного материала и не желаете, чтобы ссылка на него находилась в нашем каталоге, свяжитесь с нами, и мы незамедлительно удалим ее. Файлы для обмена на трекере предоставлены пользователями сайта, и администрация не несет ответственности за их содержание. Просьба не заливать файлы, защищенные авторскими правами, а также файлы нелегального содержания!