+100


Топ за 24 часа
 
 

[Цитировать]

- Затерянные в Тихом океане / Lost in the Pacific (2016) WEB-DL [H.264/1080p-LQ]-Производство: США, Китай, Asia Tropical Films, Shanghai Hongliang Media & Culture Co.
Жанр: Фантастика, Триллер, Приключения
Режиссер: Винсент Чжоу
Продюсер: Джон Чиу
Актеры: Брэндон Рут, Юки Чжан, Расселл Вонг, Бернисе Лью, Мэнцзе Цзянь, Каиви Лайман, Винсент Уорд, Тазито Гарсиа, Санни Ванг
Описание:
2020 год. Самые богатые люди мира собрались на борту гигантского самолёта — так называемого Небесного Титаника. Во время перелета через Тихий океан самолёт сталкивается с заброшенным авианосцем. Пилот принимает решение посадить авиалайнер на необитаемый остров посреди океана. На борту воцаряется хаос и паника. Однако вскоре пассажиры самолёта начинаю понимать, что это не просто трагическая случайность.

Дата мировой премьеры: 7 ноября 2015
Продолжительность: 01:30:21
Качество видео: WEB-DL
Перевод: Многоголосый закадровый
Озвучка / Автор перевода: КОЛОБОК
Вид субтитров: Отсутствуют
Реклама: Присутствуют аудио и видео вставки рекламы
Видео: MPEG-4 AVC, 1908x1032, 4 840 Кбит/с,
Аудио: Русский AC3, 2 ch, 384 Кбит/с

MediaInfo

General
Complete name : O:\Lost.in.the.Pacific.2016.P.WEB-DL.1080p.mkv
Format : Matroska
File size : 3.36 GiB
Duration : 1h 30mn
Overall bit rate : 5 330 Kbps
Encoded date : UTC 2017-01-10 15:46:35
Writing application : mkvmerge v8.3.0 ('Over the Horizon') 64bit
Writing library : libebml v1.3.1 + libmatroska v1.4.2
Video
ID : 1
Format : AVC
Format/Info : Advanced Video Codec
Format profile : High@L4.1
Format settings, CABAC : Yes
Format settings, ReFrames : 4 frames
Muxing mode : Container profile=Unknown@4.1
Codec ID : V_MPEG4/ISO/AVC
Duration : 1h 30mn
Bit rate : 4 840 Kbps
Width : 1 908 pixels
Height : 1 032 pixels
Display aspect ratio : 16:9
Frame rate : 23.976 fps
Standard : Component
Resolution : 8 bits
Colorimetry : 4:2:0
Scan type : Progressive
Bits/(Pixel*Frame) : 0.103
Stream size : 3.05 GiB (91%)
Color primaries : BT.709-5, BT.1361, IEC 61966-2-4, SMPTE RP177
Transfer characteristics : BT.709-5, BT.1361
Matrix coefficients : BT.709-5, BT.1361, IEC 61966-2-4 709, SMPTE RP177
Audio
ID : 2
Format : AC-3
Format/Info : Audio Coding 3
Codec ID : A_AC3
Duration : 1h 30mn
Bit rate mode : Constant
Bit rate : 384 Kbps
Channel(s) : 2 channels
Channel positions : L R
Sampling rate : 48.0 KHz
Stream size : 248 MiB (7%)
Скриншоты:




Показать сообщения:    

Текущее время: 17-Янв 22:06

Часовой пояс: UTC + 11


Вы не можете начинать темы
Вы не можете отвечать на сообщения
Вы не можете редактировать свои сообщения
Вы не можете удалять свои сообщения
Вы не можете голосовать в опросах
Вы не можете прикреплять файлы к сообщениям
Вы не можете скачивать файлы

Сайт не предоставляет электронные версии произведений, а занимается лишь коллекционированием и каталогизацией ссылок, присылаемых и публикуемых на форуме нашими читателями. Если вы являетесь правообладателем какого-либо представленного материала и не желаете, чтобы ссылка на него находилась в нашем каталоге, свяжитесь с нами, и мы незамедлительно удалим ее. Файлы для обмена на трекере предоставлены пользователями сайта, и администрация не несет ответственности за их содержание. Просьба не заливать файлы, защищенные авторскими правами, а также файлы нелегального содержания!