+100


Топ за 24 часа
 
 

[Цитировать]

- Светская жизнь / Cafe Society (2016) BDRip [H.264]-Производство: США, FilmNation Entertainment, Gravier Productions, Perdido Productions
Жанр: Драма, Мелодрама, Комедия
Режиссер: Вуди Аллен
Актеры: Дженни Берлин, Стив Карелл, Джесси Айзенберг, Кристен Стюарт, Блэйк Лайвли, Паркер Поузи, Кори Столл, Кен Стотт, Анна Кэмп, Пол Шнайдер
Описание:
1930-е годы. Молодой человек приезжает из Нью-Йорка в Голливуд в надежде найти работу в киноиндустрии. В Лос-Анджелесе он влюбляется и обнаруживает себя в самом центре водоворота бурной светской жизни и событий, определивших дух того времени.

Возраст: 18+ (зрителям, достигшим 18 лет. запрещено для детей)
Рейтинг MPAA: PG-13 (детям до 13 лет просмотр нежелателен)
Дата мировой премьеры: 11 мая 2016
Дата российской премьеры: 21 июля 2016, «Вольга»
Дата выхода DVD/Blu-ray релиза: 1 декабря 2016, «НД Плэй»
Продолжительность: 01:36:06
Качество видео: BDRip
Перевод: Дублированный (Лицензия BD RUS)
Язык субтитров: Английский
Вид субтитров: Вшитые отключаемые
Видео: AVC/H.264, 1024x512, ~2262 Kbps
Аудио #1: Русский, AC3, 6 ch, 448 Kbps, CBR
Аудио #2: Украинский, AC3, 6 ch, 384 Kbps, CBR
Аудио #3: Английский, AC3, 5 ch, 448 Kbps, CBR

MediaInfo

General
Unique ID : 232480310950629624477533598891345517658 (0xAEE61448AE64290E9A381135E3851C5A)
Complete name : E:\Cafe.Society.2016.BDRip.AVC.by.R.G.Resident\Cafe.Society.2016.BDRip.AVC.by.R.G.Resident.mkv
Format : Matroska
Format version : Version 4 / Version 2
File size : 2.38 GiB
Duration : 1 h 36 min
Overall bit rate : 3 544 kb/s
Movie name : Cafe Society (2016) BDRip-AVC by R.G. Resident
Encoded date : UTC 2017-01-11 16:52:39
Writing application : mkvmerge v9.7.1 ('Pandemonium') 64bit
Writing library : libebml v1.3.4 + libmatroska v1.4.5
Cover : Yes
Attachments : cover.jpg
Video
ID : 1
Format : AVC
Format/Info : Advanced Video Codec
Format profile : High@L4.1
Format settings, CABAC : Yes
Format settings, ReFrames : 9 frames
Codec ID : V_MPEG4/ISO/AVC
Duration : 1 h 36 min
Bit rate : 2 262 kb/s
Width : 1 024 pixels
Height : 512 pixels
Display aspect ratio : 2.000
Frame rate mode : Constant
Frame rate : 23.976 FPS
Color space : YUV
Chroma subsampling : 4:2:0
Bit depth : 8 bits
Scan type : Progressive
Bits/(Pixel*Frame) : 0.180
Stream size : 1.52 GiB (64%)
Title : -Lexx-
Writing library : x264 core 146 r2538 121396c
Encoding settings : cabac=1 / ref=9 / deblock=1:-2:-2 / analyse=0x3:0x113 / me=umh / subme=11 / psy=1 / psy_rd=1.00:0.10 / mixed_ref=1 / me_range=48 / chroma_me=1 / trellis=2 / 8x8dct=1 / cqm=0 / deadzone=21,11 / fast_pskip=0 / chroma_qp_offset=-3 / threads=6 / lookahead_threads=2 / sliced_threads=0 / nr=0 / decimate=0 / interlaced=0 / bluray_compat=0 / constrained_intra=0 / bframes=10 / b_pyramid=2 / b_adapt=2 / b_bias=0 / direct=3 / weightb=1 / open_gop=0 / weightp=2 / keyint=240 / keyint_min=23 / scenecut=40 / intra_refresh=0 / rc=2pass / mbtree=0 / bitrate=2262 / ratetol=1.0 / qcomp=0.60 / qpmin=0 / qpmax=69 / qpstep=4 / cplxblur=20.0 / qblur=0.5 / ip_ratio=1.40 / pb_ratio=1.30 / aq=1:1.00
Language : English
Default : Yes
Forced : No
Audio #1
ID : 2
Format : AC-3
Format/Info : Audio Coding 3
Mode extension : CM (complete main)
Format settings, Endianness : Big
Codec ID : A_AC3
Duration : 1 h 35 min
Bit rate mode : Constant
Bit rate : 448 kb/s
Channel(s) : 6 channels
Channel positions : Front: L C R, Side: L R, LFE
Sampling rate : 48.0 kHz
Frame rate : 31.250 FPS (1536 spf)
Compression mode : Lossy
Stream size : 307 MiB (13%)
Title : Дубляж, Лицензия
Language : Russian
Default : Yes
Forced : No
Audio #2
ID : 3
Format : AC-3
Format/Info : Audio Coding 3
Mode extension : CM (complete main)
Format settings, Endianness : Big
Codec ID : A_AC3
Duration : 1 h 36 min
Bit rate mode : Constant
Bit rate : 384 kb/s
Channel(s) : 6 channels
Channel positions : Front: L C R, Side: L R, LFE
Sampling rate : 48.0 kHz
Frame rate : 31.250 FPS (1536 spf)
Compression mode : Lossy
Stream size : 264 MiB (11%)
Title : Дубляж, iTunes
Language : Ukrainian
Default : No
Forced : No
Audio #3
ID : 4
Format : AC-3
Format/Info : Audio Coding 3
Mode extension : CM (complete main)
Format settings, Endianness : Big
Codec ID : A_AC3
Duration : 1 h 36 min
Bit rate mode : Constant
Bit rate : 448 kb/s
Channel(s) : 6 channels
Channel positions : Front: L C R, Side: L R, LFE
Sampling rate : 48.0 kHz
Frame rate : 31.250 FPS (1536 spf)
Compression mode : Lossy
Stream size : 308 MiB (13%)
Title : Оригинал
Language : English
Default : No
Forced : No
Text
ID : 5
Format : UTF-8
Codec ID : S_TEXT/UTF8
Codec ID/Info : UTF-8 Plain Text
Duration : 1 h 29 min
Bit rate : 95 b/s
Count of elements : 1699
Stream size : 62.7 KiB (0%)
Title : Full
Language : English
Default : No
Forced : No
Menu
00:00:00.000 : en:Chapter 1
00:08:35.848 : en:Chapter 2
00:16:40.165 : en:Chapter 3
00:26:28.628 : en:Chapter 4
00:32:30.990 : en:Chapter 5
00:43:12.506 : en:Chapter 6
00:54:03.865 : en:Chapter 7
01:02:38.755 : en:Chapter 8
01:10:05.659 : en:Chapter 9
01:14:41.101 : en:Chapter 10
01:20:46.174 : en:Chapter 11
01:31:57.094 : en:Chapter 12




Показать сообщения:    

Текущее время: 17-Янв 22:06

Часовой пояс: UTC + 11


Вы не можете начинать темы
Вы не можете отвечать на сообщения
Вы не можете редактировать свои сообщения
Вы не можете удалять свои сообщения
Вы не можете голосовать в опросах
Вы не можете прикреплять файлы к сообщениям
Вы не можете скачивать файлы

Сайт не предоставляет электронные версии произведений, а занимается лишь коллекционированием и каталогизацией ссылок, присылаемых и публикуемых на форуме нашими читателями. Если вы являетесь правообладателем какого-либо представленного материала и не желаете, чтобы ссылка на него находилась в нашем каталоге, свяжитесь с нами, и мы незамедлительно удалим ее. Файлы для обмена на трекере предоставлены пользователями сайта, и администрация не несет ответственности за их содержание. Просьба не заливать файлы, защищенные авторскими правами, а также файлы нелегального содержания!