+100


Топ за 24 часа
 
 

[Цитировать]

- Найди меня, если сможешь / Come and Find Me (2016) WEB-DL [H.264/1080p-LQ] -Производство: Великобритания
Жанр: Триллер, Драма
Режиссер: Зак Уэдон
Актеры: Аарон Пол, Аннабелль Уоллис, Гаррет Диллахант, Валери Тиан, Захари Найтон, Терри Чен, Джордана Ларги, Дин Редман, Майкл Копса, Джессика Хифи
Описание:
Клэр и Дэвид нашли друг друга и стали счастливой парой: ссорились, мирились и мечтали прожить вместе сто лет. Пока однажды Клэр не исчезла. В поисках любимой Дэвид сталкивается с криминальными авторитетами, сотрудниками спецслужб. Его чувствам предстоит подвергнуться серьезным испытаниям. Готов ли он идти до конца ради любви?

Рейтинг MPAA: R (лицам до 17 лет обязательно присутствие взрослого)
Дата мировой премьеры: 11 ноября 2016
Дата российской премьеры: 22 декабря 2016, «Capella Film»
Продолжительность: 01:52:11
Качество видео: WEB-DL
Перевод: Многоголосый закадровый, профессиональный (Официальный звук)
Вид субтитров: Вшитые, отключаемые
Язык субтитров: Английский
Видео: MPEG-4 AVC, 1912x796, 4 468 Кбит/с
Аудио 1: Русский AC3, 2 ch, 192 Кбит/с
Аудио 2: Английский AC3, 6 ch, 384 Кбит/с)

MediaInfo

General
Complete name : O:\Najdi.menya.esli.smozheshj.2O16.P.WEBDL.1080p.mkv
Format : Matroska
File size : 4.03 GiB
Duration : 1h 52mn
Overall bit rate : 5 147 Kbps
Encoded date : UTC 2017-01-10 12:03:14
Writing application : mkvmerge v6.8.0 ('Theme for Great Cities') 32bit built on Mar 2 2014 21:27:07
Writing library : libebml v1.3.0 + libmatroska v1.4.1
Video
ID : 1
Format : AVC
Format/Info : Advanced Video Codec
Format profile : High@L4.0
Format settings, CABAC : Yes
Format settings, ReFrames : 5 frames
Muxing mode : Container profile=Unknown@4.0
Codec ID : V_MPEG4/ISO/AVC
Duration : 1h 52mn
Bit rate : 4 468 Kbps
Width : 1 912 pixels
Height : 796 pixels
Display aspect ratio : 2.40:1
Frame rate : 23.976 fps
Resolution : 8 bits
Colorimetry : 4:2:0
Scan type : Progressive
Bits/(Pixel*Frame) : 0.122
Stream size : 3.50 GiB (87%)
Color primaries : BT.709-5, BT.1361, IEC 61966-2-4, SMPTE RP177
Transfer characteristics : BT.709-5, BT.1361
Matrix coefficients : BT.709-5, BT.1361, IEC 61966-2-4 709, SMPTE RP177
Audio #1
ID : 2
Format : AC-3
Format/Info : Audio Coding 3
Codec ID : A_AC3
Duration : 1h 52mn
Bit rate mode : Constant
Bit rate : 192 Kbps
Channel(s) : 2 channels
Channel positions : L R
Sampling rate : 48.0 KHz
Stream size : 154 MiB (4%)
Language : Russian
Audio #2
ID : 3
Format : AC-3
Format/Info : Audio Coding 3
Codec ID : A_AC3
Duration : 1h 52mn
Bit rate mode : Constant
Bit rate : 384 Kbps
Channel(s) : 6 channels
Channel positions : Front: L C R, Surround: L R, LFE
Sampling rate : 48.0 KHz
Stream size : 308 MiB (7%)
Text
ID : 4
Format : UTF-8
Codec ID : S_TEXT/UTF8
Codec ID/Info : UTF-8 Plain Text
Menu
00:00:00.000 : en:1
00:10:26.000 : en:2
00:21:17.000 : en:3
00:31:41.000 : en:4
00:40:13.000 : en:5
00:51:13.000 : en:6
01:02:03.000 : en:7
01:14:57.000 : en:8
01:24:28.000 : en:9
01:34:11.000 : en:10
01:47:21.000 : en:11
Скриншоты:




Показать сообщения:    

Текущее время: 17-Янв 22:05

Часовой пояс: UTC + 11


Вы не можете начинать темы
Вы не можете отвечать на сообщения
Вы не можете редактировать свои сообщения
Вы не можете удалять свои сообщения
Вы не можете голосовать в опросах
Вы не можете прикреплять файлы к сообщениям
Вы не можете скачивать файлы

Сайт не предоставляет электронные версии произведений, а занимается лишь коллекционированием и каталогизацией ссылок, присылаемых и публикуемых на форуме нашими читателями. Если вы являетесь правообладателем какого-либо представленного материала и не желаете, чтобы ссылка на него находилась в нашем каталоге, свяжитесь с нами, и мы незамедлительно удалим ее. Файлы для обмена на трекере предоставлены пользователями сайта, и администрация не несет ответственности за их содержание. Просьба не заливать файлы, защищенные авторскими правами, а также файлы нелегального содержания!