+100


Топ за 24 часа
 
 

[Цитировать]

- Отмель / The Shallows (2016) BDRip [H.265/2160p] [4K] -Производство: США / Columbia Pictures, Ombra Films, Weimaraner Republic Pictures
Жанр: Ужасы, Триллер, Драма
Режиссер: Хауме Кольет-Серра
Актеры: Блейк Лайвли, Оскар Хаэнада, Бретт Каллен, Седона Ледже, Пабло Кальва, Диего Эспехель, Джанелл Бэйли, Ава Дин, Челси Муди, Салли Сигалл
Описание:
Бескрайний океан, безлюдный пляж и идеальная погода для серфингистов в поисках хорошей волны. Казалось бы, ничто не предвещает беды для очаровательной любительницы серфинга в одиночку. Разве что свидание тет-а-тет с гигантской акулой, которая загонит спортсменку на песчаную отмель и не отступит до тех пор, пока не получит своё.

Возраст: 16+ (зрителям, достигшим 16 лет)
Рейтинг MPAA: PG-13 (детям до 13 лет просмотр нежелателен)
Продолжительность: 01:26:48
Качество видео: BDRip
Перевод: Дублированный
Язык субтитров: Русский
Вид субтитров: Вшитые, отключаемые, форсированные.
Видео: HEVC/H.265, 3840х2160, ~58,6 Мбит/сек
Аудио: AC3, 6 ch, 640 Кбит/сек, CBR - Русский
Аудио: DTS, 6 ch, 1509 Кбит/сек, CBR - Английский

MediaInfo

Общее
Уникальный идентификатор : 204570712804053306987172846254992974695 (0x99E6E2DAF2F250F2AF7884EC3C68E367)
Полное имя : H:\ОТМЕЛЬ (2016) 2160p 4К.mkv
Формат : Matroska
Версия формата : Version 4 / Version 2
Размер файла : 37,6 Гбайт
Продолжительность : 1 ч. 26 м.
Общий поток : 62,0 Мбит/сек
Название фильма : The Shallows (2016) - Release for HDCLUB
Дата кодирования : UTC 2017-01-08 13:22:00 / UTC 2017-01-02T03:10:12Z
Программа кодирования : mkvmerge v9.6.0 ('Slave To Your Mind') 64bit
Библиотека кодирования : libebml v1.3.4 + libmatroska v1.4.5 / Lavf56.1.0
Видео
Идентификатор : 1
Формат : HEVC
Формат/Информация : High Efficiency Video Coding
Профиль формата : Main 10@L6.1@Main
Идентификатор кодека : V_MPEGH/ISO/HEVC
Продолжительность : 1 ч. 26 м.
Битрейт : 58,6 Мбит/сек
Ширина : 3840 пикселей
Высота : 2160 пикселей
Соотношение сторон : 16:9
Режим частоты кадров : Постоянный
Частота кадров : 23,976 (24000/1001) кадра/сек
Цветовое пространство : YUV
Субдискретизация насыщенности : 4:2:0
Битовая глубина : 10 бит
Бит/(Пиксели*Кадры) : 0.295
Размер потока : 35,5 Гбайт (95%)
Библиотека кодирования : x265 1.9+3-63308f7658c3:[Windows][GCC 5.2.0][64 bit] 10bit
Настройки программы : wpp / ctu=64 / min-cu-size=8 / max-tu-size=32 / tu-intra-depth=1 / tu-inter-depth=1 / me=1 / subme=2 / merange=57 / no-rect / no-amp / max-merge=2 / temporal-mvp / no-early-skip / rdpenalty=0 / no-tskip / no-tskip-fast / strong-intra-smoothing / no-lossless / no-cu-lossless / no-constrained-intra / no-fast-intra / open-gop / no-temporal-layers / interlace=0 / keyint=240 / min-keyint=24 / scenecut=40 / rc-lookahead=20 / lookahead-slices=8 / bframes=4 / bframe-bias=0 / b-adapt=2 / ref=3 / limit-refs=3 / no-limit-modes / weightp / no-weightb / aq-mode=1 / qg-size=32 / aq-strength=1.00 / cbqpoffs=0 / crqpoffs=0 / rd=3 / psy-rd=2.00 / rdoq-level=0 / psy-rdoq=0.00 / signhide / deblock / sao / no-sao-non-deblock / b-pyramid / cutree / no-intra-refresh / rc=abr / bitrate=61000 / qcomp=0.60 / qpmin=0 / qpmax=51 / qpstep=4 / ipratio=1.40 / pbratio=1.30
Default : Да
Forced : Нет
Цветовой диапазон : Limited
Основные цвета : BT.709
Характеристики трансфера : BT.709
Коэффициенты матрицы : BT.601
Statistics Tags Issue : mkvmerge v9.6.0 ('Slave To Your Mind') 64bit 2017-01-08 13:22:00 / mkvmerge v9.6.0 ('Slave To Your Mind') 64bit 2017-01-08 13:22:00 / UTC 2017-01-02T03:10:12Z
FromStats_BitRate : 59849324
FromStats_Duration : 01:26:48.537000000
FromStats_FrameCount : 124880
FromStats_StreamSize : 38965927837
Аудио #1
Идентификатор : 2
Формат : AC-3
Формат/Информация : Audio Coding 3
Расширение режима : CM (complete main)
Параметр Endianness формата : Big
Идентификатор кодека : A_AC3
Продолжительность : 1 ч. 26 м.
Вид битрейта : Постоянный
Битрейт : 640 Кбит/сек
Каналы : 6 каналов
Расположение каналов : Front: L C R, Side: L R, LFE
Частота : 48,0 КГц
Частота кадров : 31,250 кадров/сек (1536 spf)
Метод сжатия : С потерями
Задержка видео : 25 с. 166 мс.
Размер потока : 397 Мбайт (1%)
Заголовок : AC3 5.1 @ 640 kbps - DUB, Blu-ray EUR
Язык : Russian
Default : Да
Forced : Нет
Statistics Tags Issue : mkvmerge v9.6.0 ('Slave To Your Mind') 64bit 2017-01-08 13:22:00 / mkvmerge v9.6.0 ('Slave To Your Mind') 64bit 2017-01-08 13:22:00 / UTC 2017-01-02T03:10:12Z
FromStats_BitRate : 640000
FromStats_Duration : 01:26:16.160000000
FromStats_FrameCount : 161755
FromStats_StreamSize : 414092800
Аудио #2
Идентификатор : 3
Формат : DTS
Формат/Информация : Digital Theater Systems
Режим : 16
Параметр Endianness формата : Big
Идентификатор кодека : A_DTS
Продолжительность : 1 ч. 26 м.
Вид битрейта : Постоянный
Битрейт : 1509 Кбит/сек
Каналы : 6 каналов
Расположение каналов : Front: L C R, Side: L R, LFE
Частота : 48,0 КГц
Частота кадров : 93,750 кадра/сек (512 spf)
Битовая глубина : 24 бит
Метод сжатия : С потерями
Задержка видео : 25 с. 177 мс.
Размер потока : 937 Мбайт (2%)
Заголовок : DTS 5.1 @ 1536 kbps
Язык : English
Default : Нет
Forced : Нет
Statistics Tags Issue : mkvmerge v9.6.0 ('Slave To Your Mind') 64bit 2017-01-08 13:22:00 / mkvmerge v9.6.0 ('Slave To Your Mind') 64bit 2017-01-08 13:22:00 / UTC 2017-01-02T03:10:12Z
FromStats_BitRate : 1508999
FromStats_Duration : 01:26:16.182000000
FromStats_FrameCount : 485267
FromStats_StreamSize : 976357204
Текст
Идентификатор : 4
Формат : UTF-8
Идентификатор кодека : S_TEXT/UTF8
Идентификатор кодека/Информация : UTF-8 Plain Text
Заголовок : Forced, iTunes
Язык : Russian
Default : Да
Forced : Нет
Statistics Tags Issue : mkvmerge v9.6.0 ('Slave To Your Mind') 64bit 2017-01-08 13:22:00 / mkvmerge v9.6.0 ('Slave To Your Mind') 64bit 2017-01-08 13:22:00 / UTC 2017-01-02T03:10:12Z
FromStats_BitRate : 1
FromStats_Duration : 01:19:12.340000000
FromStats_FrameCount : 36
FromStats_StreamSize : 1029

Дополнительная информация:

Как всегда-скачал "там", вставил сам. С Bluray. Рассинхрон отсутствует абсолютно, проверено на ТВ Самсунг UE55JU6790 с внешнего жесткого диска ч-з usb 3.0
Скриншоты:




Показать сообщения:    

Текущее время: 30-Мар 07:53

Часовой пояс: UTC + 11


Вы не можете начинать темы
Вы не можете отвечать на сообщения
Вы не можете редактировать свои сообщения
Вы не можете удалять свои сообщения
Вы не можете голосовать в опросах
Вы не можете прикреплять файлы к сообщениям
Вы не можете скачивать файлы

Сайт не предоставляет электронные версии произведений, а занимается лишь коллекционированием и каталогизацией ссылок, присылаемых и публикуемых на форуме нашими читателями. Если вы являетесь правообладателем какого-либо представленного материала и не желаете, чтобы ссылка на него находилась в нашем каталоге, свяжитесь с нами, и мы незамедлительно удалим ее. Файлы для обмена на трекере предоставлены пользователями сайта, и администрация не несет ответственности за их содержание. Просьба не заливать файлы, защищенные авторскими правами, а также файлы нелегального содержания!