+100


Топ за 24 часа
 
 

[Цитировать]

- Найди меня, если сможешь / Come and Find Me (2016) WEB-DLRip -Производство: Великобритания
Жанр: Триллер, Драма
Режиссер: Зак Уэдон
Актеры: Аарон Пол, Аннабелль Уоллис, Гаррет Диллахант, Валери Тиан, Захари Найтон, Терри Чен, Джордана Ларги, Дин Редман, Майкл Копса, Джессика Хифи
Описание:
Клэр и Дэвид нашли друг друга и стали счастливой парой: ссорились, мирились и мечтали прожить вместе сто лет. Пока однажды Клэр не исчезла. В поисках любимой Дэвид сталкивается с криминальными авторитетами, сотрудниками спецслужб. Его чувствам предстоит подвергнуться серьезным испытаниям. Готов ли он идти до конца ради любви?

Рейтинг MPAA: R (лицам до 17 лет обязательно присутствие взрослого)
Дата мировой премьеры: 11 ноября 2016
Дата российской премьеры: 22 декабря 2016, «Capella Film»
Продолжительность: 01:52:11
Качество видео: WEB-DLRip
Перевод: Многоголосый закадровый, профессиональный (Официальный звук)
Вид субтитров: Отсутствуют
Видео: Xvid, 720x304, ~1660 kbps
Аудио: AC3, 2 ch, 192 kbps, CBR

MediaInfo

Общее
Полное имя : C:Торренты\Найди меня если сможешь.2016.P.WEB-DLRip.avi
Формат : AVI
Формат/Информация : Audio Video Interleave
Размер файла : 1,46 Гбайт
Продолжительность : 1 ч. 52 м.
Общий поток : 1862 Кбит/сек
Программа кодирования : VirtualDubMod 1.5.10.2 (build 2540/release)
Библиотека кодирования : VirtualDubMod build 2540/release
Видео
Идентификатор : 0
Формат : MPEG-4 Visual
Профиль формата : Advanced Simple@L5
Параметр BVOP формата : 2
Параметр QPel формата : Нет
Параметр GMC формата : Без точки перехода
Параметр матрицы формата : Default (MPEG)
Идентификатор кодека : XVID
Идентификатор кодека/Подсказка : XviD
Продолжительность : 1 ч. 52 м.
Битрейт : 1660 Кбит/сек
Ширина : 720 пикселей
Высота : 304 пикселя
Соотношение сторон : 2,35:1
Частота кадров : 23,976 (24000/1001) кадра/сек
Цветовое пространство : YUV
Субдискретизация насыщенности : 4:2:0
Битовая глубина : 8 бит
Тип развёртки : Прогрессивная
Метод сжатия : С потерями
Бит/(Пиксели*Кадры) : 0.316
Размер потока : 1,30 Гбайт (89%)
Библиотека кодирования : XviD 1.2.1 (UTC 2008-12-04)
Аудио
Идентификатор : 1
Формат : AC-3
Формат/Информация : Audio Coding 3
Расширение режима : CM (complete main)
Параметр Endianness формата : Big
Идентификатор кодека : 2000
Продолжительность : 1 ч. 52 м.
Вид битрейта : Постоянный
Битрейт : 192 Кбит/сек
Каналы : 2 канала
Расположение каналов : Front: L R
Частота : 48,0 КГц
Частота кадров : 31,250 кадров/сек (1536 spf)
Битовая глубина : 16 бит
Метод сжатия : С потерями
Размер потока : 154 Мбайт (10%)
Выравнивание : Разделение по промежуткам
Продолжительность промежутка : 42 мс. (1,00 видеокадр)
Время предзагрузки промежутка : 500 мс.
Скриншоты:




Показать сообщения:    

Текущее время: 17-Янв 22:05

Часовой пояс: UTC + 11


Вы не можете начинать темы
Вы не можете отвечать на сообщения
Вы не можете редактировать свои сообщения
Вы не можете удалять свои сообщения
Вы не можете голосовать в опросах
Вы не можете прикреплять файлы к сообщениям
Вы не можете скачивать файлы

Сайт не предоставляет электронные версии произведений, а занимается лишь коллекционированием и каталогизацией ссылок, присылаемых и публикуемых на форуме нашими читателями. Если вы являетесь правообладателем какого-либо представленного материала и не желаете, чтобы ссылка на него находилась в нашем каталоге, свяжитесь с нами, и мы незамедлительно удалим ее. Файлы для обмена на трекере предоставлены пользователями сайта, и администрация не несет ответственности за их содержание. Просьба не заливать файлы, защищенные авторскими правами, а также файлы нелегального содержания!