+100


Топ за 24 часа
 
 

[Цитировать]

- Баллистика: Экс против Сивер / Ballistic: Ecks vs. Sever (2002) DVDRip [H.264] -Производство: США, Германия / Franchise Pictures, Chris Lee Productions, MHF Erste Academy Film GmbH & Co. Produktions KG
Жанр: Боевик, Фантастика
Режиссер: Вуч Каосаянанда
Актеры: Антонио Бандерас, Люси Лью, Грегг Генри, Рэй Парк, Талиса Сото, Мигель Сандоваль, Терри Чен, Роджер Р. Кросс, Сандрин Холт, Стив Бачич
Описание:
Два лучших секретных агента в мире. Одна общая месть. Агент Экс — лучший оперативник, который когда-либо работал на ФБР. Китайский агент Сивер — самая смертоносная женщина планеты. В войне спецслужб мира они — противники, ведущие друг с другом отчаянную игру в кошки-мышки, где ни один не может взять верх. Казалось, их противостояние могло бы длиться вечно, но однажды происходит неожиданное: герои вынуждены выступить вместе против общего, мощного, страшного врага, завладевшего новейшим оружием, ярая ненависть к которому затмевает их собственное соперничество. Каждый из них и поодиночке стоил целой армии. Что же будет, когда Экс и Сивер объединят свои усилия? Правильный ответ прост: Армагеддон!..

Возраст: 18+ (зрителям, достигшим 18 лет. запрещено для детей)
Рейтинг MPAA: R (лицам до 17 лет обязательно присутствие взрослого)
Продолжительность: 01:32:01
Качество видео: DVDRip-AVC
Перевод: Профессиональный (многоголосый, закадровый), дублированный
Субтитры: Отсутствуют
Видео: AVC/H.264, 1024x428 (2.35:1), 23.976 fps, 2 752 Kbps (0.262 bit/pixel)
Аудио#1 Rus: AC-3, 48.0 KHz, 6 ch, 448 Kbps, CBR - многоголосый
Аудио#2 Rus: AC-3, 48.0 KHz, 6 ch, 448 Kbps, CBR - многоголосый
Аудио#3 Rus: AC-3, 48.0 KHz, 6 ch, 192 Kbps, CBR - дубляж
Аудио#4 Eng: AC-3, 48.0 KHz, 6 ch, 448 Kbps, CBR - оригинал

x264 log

x264 [info]: profile High, level 4.1
x264 [info]: frame I:1266 Avg QP:16.60 size: 53196 PSNR Mean Y:47.51 U:50.34 V:51.25 Avg:48.31 Global:47.81
x264 [info]: frame P:29660 Avg QP:18.85 size: 25678 PSNR Mean Y:45.50 U:48.93 V:50.06 Avg:46.38 Global:45.71
x264 [info]: frame B:101451 Avg QP:20.45 size: 10549 PSNR Mean Y:44.33 U:47.88 V:49.34 Avg:45.24 Global:44.57

MediaInfo

Формат                                   : Matroska
Версия формата                           : Version 2
Размер файла                             : 2,75 Гбайт
Продолжительность                        : 1 ч. 32 м.
Общий поток                              : 4277 Кбит/сек
Дата кодирования                         : UTC 2017-01-10 15:16:04
Программа кодирования                    : mkvmerge v5.3.0 ('I could have danced') built on Feb  9 2012 10:38:07
Библиотека кодирования                   : libebml v1.2.3 + libmatroska v1.3.0
Attachments                              : poster 4.jpg
Видео
Идентификатор                            : 1
Формат                                   : AVC
Формат/Информация                        : Advanced Video Codec
Профиль формата                          : [url=mailto:High@L4.1]High@L4.1[/url]
Параметр CABAC формата                   : Да
Параметр ReFrames формата                : 11 кадров
Идентификатор кодека                     : V_MPEG4/ISO/AVC
Продолжительность                        : 1 ч. 32 м.
Битрейт                                  : 2752 Кбит/сек
Ширина                                   : 1024 пикселя
Высота                                   : 428 пикселей
Соотношение сторон                       : 2,40:1
Режим частоты кадров                     : Постоянный
Частота кадров                           : 23,976 (24000/1001) кадра/сек
Цветовое пространство                    : YUV
Субдискретизация насыщенности            : 4:2:0
Битовая глубина                          : 8 бит
Тип развёртки                            : Прогрессивная
Бит/(Пиксели*Кадры)                      : 0.262
Размер потока                            : 1,71 Гбайт (62%)
Библиотека кодирования                   : x264 core 146 r2538 121396c
Настройки программы                      : cabac=1 / ref=11 / deblock=1:-3:-3 / analyse=0x3:0x133 / me=umh / subme=10 / psy=1 / psy_rd=1.05:0.15 / mixed_ref=1 / me_range=32 / chroma_me=1 / trellis=2 / 8x8dct=1 / cqm=0 / deadzone=21,11 / fast_pskip=0 / chroma_qp_offset=-3 / threads=12 / lookahead_threads=3 / sliced_threads=0 / nr=0 / decimate=0 / interlaced=0 / bluray_compat=0 / constrained_intra=0 / bframes=8 / b_pyramid=2 / b_adapt=2 / b_bias=0 / direct=3 / weightb=1 / open_gop=0 / weightp=2 / keyint=240 / keyint_min=23 / scenecut=40 / intra_refresh=0 / rc=2pass / mbtree=0 / bitrate=2752 / ratetol=1.0 / qcomp=0.60 / qpmin=0 / qpmax=69 / qpstep=4 / cplxblur=20.0 / qblur=0.5 / ip_ratio=1.40 / pb_ratio=1.30 / aq=1:0.90
Default                                  : Да
Forced                                   : Нет
Аудио #1
Идентификатор                            : 2
Формат                                   : AC-3
Формат/Информация                        : Audio Coding 3
Расширение режима                        : CM (complete main)
Параметр Endianness формата              : Big
Идентификатор кодека                     : A_AC3
Продолжительность                        : 1 ч. 32 м.
Вид битрейта                             : Постоянный
Битрейт                                  : 448 Кбит/сек
Каналы                                   : 6 каналов
Расположение каналов                     : Front: L C R, Side: L R, LFE
Частота                                  : 48,0 КГц
Частота кадров                           : 31,250 кадров/сек (1536 spf)
Битовая глубина                          : 16 бит
Метод сжатия                             : С потерями
Размер потока                            : 295 Мбайт (10%)
Заголовок                                : Профессиональный многоголосый
Язык                                     : Russian
Default                                  : Да
Forced                                   : Нет
Аудио #2
Идентификатор                            : 3
Формат                                   : AC-3
Формат/Информация                        : Audio Coding 3
Расширение режима                        : CM (complete main)
Параметр Endianness формата              : Big
Идентификатор кодека                     : A_AC3
Продолжительность                        : 1 ч. 32 м.
Вид битрейта                             : Постоянный
Битрейт                                  : 448 Кбит/сек
Каналы                                   : 6 каналов
Расположение каналов                     : Front: L C R, Side: L R, LFE
Частота                                  : 48,0 КГц
Частота кадров                           : 31,250 кадров/сек (1536 spf)
Битовая глубина                          : 16 бит
Метод сжатия                             : С потерями
Размер потока                            : 295 Мбайт (10%)
Заголовок                                : Профессиональный многоголосый (Лицензия)
Язык                                     : Russian
Default                                  : Нет
Forced                                   : Нет
Аудио #3
Идентификатор                            : 4
Формат                                   : AC-3
Формат/Информация                        : Audio Coding 3
Расширение режима                        : CM (complete main)
Параметр Endianness формата              : Big
Идентификатор кодека                     : A_AC3
Продолжительность                        : 1 ч. 32 м.
Вид битрейта                             : Постоянный
Битрейт                                  : 192 Кбит/сек
Каналы                                   : 2 канала
Расположение каналов                     : Front: L R
Частота                                  : 44,1 КГц
Частота кадров                           : 28,711 кадров/сек (1536 spf)
Битовая глубина                          : 16 бит
Метод сжатия                             : С потерями
Размер потока                            : 126 Мбайт (4%)
Заголовок                                : Дубляж
Язык                                     : Russian
Default                                  : Нет
Forced                                   : Нет
Аудио #4
Идентификатор                            : 5
Формат                                   : AC-3
Формат/Информация                        : Audio Coding 3
Расширение режима                        : CM (complete main)
Параметр Endianness формата              : Big
Идентификатор кодека                     : A_AC3
Продолжительность                        : 1 ч. 32 м.
Вид битрейта                             : Постоянный
Битрейт                                  : 448 Кбит/сек
Каналы                                   : 6 каналов
Расположение каналов                     : Front: L C R, Side: L R, LFE
Частота                                  : 48,0 КГц
Частота кадров                           : 31,250 кадров/сек (1536 spf)
Битовая глубина                          : 16 бит
Метод сжатия                             : С потерями
Размер потока                            : 295 Мбайт (10%)
Заголовок                                : оригинал
Язык                                     : English
Default                                  : Нет
Forced                                   : Нет
Скриншоты:




Показать сообщения:    

Текущее время: 24-Ноя 08:53

Часовой пояс: UTC + 11


Вы не можете начинать темы
Вы не можете отвечать на сообщения
Вы не можете редактировать свои сообщения
Вы не можете удалять свои сообщения
Вы не можете голосовать в опросах
Вы не можете прикреплять файлы к сообщениям
Вы не можете скачивать файлы

Сайт не предоставляет электронные версии произведений, а занимается лишь коллекционированием и каталогизацией ссылок, присылаемых и публикуемых на форуме нашими читателями. Если вы являетесь правообладателем какого-либо представленного материала и не желаете, чтобы ссылка на него находилась в нашем каталоге, свяжитесь с нами, и мы незамедлительно удалим ее. Файлы для обмена на трекере предоставлены пользователями сайта, и администрация не несет ответственности за их содержание. Просьба не заливать файлы, защищенные авторскими правами, а также файлы нелегального содержания!