+100


Топ за 24 часа
 
 

[Цитировать]

- Свет в океане / The Light Between Oceans (2016) BDRip -Производство: Великобритания, Новая Зеландия, США
Жанр: Драма, Мелодрама
Режиссер: Дерек Сиенфрэнс
Актеры: Майкл Фассбендер, Алисия Викандер, Рэйчел Вайс, Флоренс Клери, Джек Томпсон, Томас Унгер, Джейн Менелос, Гарри МакДональд, Энтони Хэйес, Бенедикт Харди
Описание:
Вернувшийся с войны смотритель маяка Том встречает трепетную девушку по имени Изабель. Зародившаяся между ними любовь полностью преображает Изабель и возвращает опустошенному Тому веру в жизнь. Молодожены поселяются на уединенном острове, к берегу которого однажды пристает лодка с новорожденной девочкой. Супруги решают воспитать младенца как родную дочь, не представляя, насколько разрушительными будут последствия этого выбора.

Возраст: 16+ (зрителям, достигшим 16 лет)
Рейтинг MPAA: PG-13 (детям до 13 лет просмотр нежелателен)
Дата мировой премьеры: 1 сентября 2016
Дата российской премьеры: 8 сентября 2016, «Артхаус»
Продолжительность: 02:12:39
Качество видео: BDRip
Перевод: Дублированный (iTunes)
Субтитры: Русские форсированные (отдельно)
Видео: Xvid, 704x288, 1895 kbps
Аудио: AC3, 6 ch, 384 kbps

MediaInfo

Общее
Полное имя                               : F:\The.Light.Between.Oceans.2016.BDRip.NNM-CLUB.avi
Формат                                   : AVI
Формат/Информация                        : Audio Video Interleave
Профиль формата                          : OpenDML
Настройки формата                        : rec
Размер файла                             : 2,12 Гбайт
Продолжительность                        : 2 ч. 12 м.
Общий поток                              : 2284 Кбит/сек
Программа кодирования                    : AVI-Mux GUI 1.17.8.3, Feb 16 201019:42:50
Видео
Идентификатор                            : 0
Формат                                   : MPEG-4 Visual
Профиль формата                          : Advanced Simple@L5
Параметр BVOP формата                    : 2
Параметр QPel формата                    : Нет
Параметр GMC формата                     : Без точки перехода
Параметр матрицы формата                 : Выборочная
Идентификатор кодека                     : XVID
Идентификатор кодека/Подсказка           : XviD
Продолжительность                        : 2 ч. 12 м.
Битрейт                                  : 1895 Кбит/сек
Ширина                                   : 720 пикселей
Высота                                   : 304 пикселя
Соотношение сторон                       : 2,35:1
Частота кадров                           : 23,976 (24000/1001) кадра/сек
Цветовое пространство                    : YUV
Субдискретизация насыщенности            : 4:2:0
Битовая глубина                          : 8 бит
Тип развёртки                            : Прогрессивная
Метод сжатия                             : С потерями
Бит/(Пиксели*Кадры)                      : 0.361
Размер потока                            : 1,76 Гбайт (83%)
Библиотека кодирования                   : XviD 73
Аудио
Идентификатор                            : 1
Формат                                   : AC-3
Формат/Информация                        : Audio Coding 3
Расширение режима                        : CM (complete main)
Параметр Endianness формата              : Big
Идентификатор кодека                     : 2000
Продолжительность                        : 2 ч. 12 м.
Вид битрейта                             : Постоянный
Битрейт                                  : 384 Кбит/сек
Каналы                                   : 6 каналов
Расположение каналов                     : Front: L C R, Side: L R, LFE
Частота                                  : 48,0 КГц
Частота кадров                           : 31,250 кадров/сек (1536 spf)
Метод сжатия                             : С потерями
Размер потока                            : 365 Мбайт (17%)
Выравнивание                             : Соединение по промежуткам
Продолжительность промежутка             : 64  мс. (1,53 видеокадра)
Время предзагрузки промежутка            : 192  мс.
Заголовок                                : iTunes
Скриншоты:




Показать сообщения:    

Текущее время: 25-Июл 17:43

Часовой пояс: UTC + 11


Вы не можете начинать темы
Вы не можете отвечать на сообщения
Вы не можете редактировать свои сообщения
Вы не можете удалять свои сообщения
Вы не можете голосовать в опросах
Вы не можете прикреплять файлы к сообщениям
Вы не можете скачивать файлы

Сайт не предоставляет электронные версии произведений, а занимается лишь коллекционированием и каталогизацией ссылок, присылаемых и публикуемых на форуме нашими читателями. Если вы являетесь правообладателем какого-либо представленного материала и не желаете, чтобы ссылка на него находилась в нашем каталоге, свяжитесь с нами, и мы незамедлительно удалим ее. Файлы для обмена на трекере предоставлены пользователями сайта, и администрация не несет ответственности за их содержание. Просьба не заливать файлы, защищенные авторскими правами, а также файлы нелегального содержания!