+100


Топ за 24 часа
 
 

[Цитировать]

- Дом напротив / Сосед / The Neighbor (2016) BDRip [H.264/1080p-LQ]«А знаешь ли ты, кто твой сосед?»-Производство: США / Fortress Features, Salt Company International
Жанр: Ужасы, Триллер, Криминал
Режиссер: Маркус Данстэн
Продюсер: Бретт Форбс, Патрик Риззотти, Маркус Данстэн
Актеры: Джош Стюарт, Люк Эдвардс, Мелисса Болона, Билл Ингвалл, Александра Эссоу, Жаклин Флеминг, Скипп Саддат, Ронни Джин Блевинс, Дэвид Каллауэй, Хезер Уильямс, Бен Мэзени, Артриал Кларк, Мэйсон Гуччионе
Описание:
Джон и Рози мечтают о счастливой жизни. Осталось закончить одно дело и можно оставить прошлое позади. Но у судьбы другие планы…
Однажды вернувшись домой, Джон обнаруживает, что Рози исчезла. В поисках пропавшей красотки Джон проникает в дом загадочного соседа. Там ему открываются страшные тайны, которые лучше не будоражить. Самые жуткие кошмары Джона покажутся детской забавой по сравнению с тем, что скрывается в этом доме…

Возраст: 18+ (зрителям, достигшим 18 лет. запрещено для детей)
Рейтинг MPAA: R (лицам до 17 лет обязательно присутствие взрослого)
Дата мировой премьеры: 19 августа 2016
Дата российской премьеры: 8 декабря 2016, «Capella Film»
Продолжительность: 01:27:25
Перевод: Дублированный (iTunes)
Субтитры: отсутствуют
Видео: AVC/H.264, 1920x804 (2.40:1), ~6811 kbps , 23,976 fps
Аудио: AC3, 6 ch, 48 kHz, 384 kbps, CBR

MediaInfo

General
Unique ID : 171632588516945016585208972378826589212 (0x811F3BF2495452929216328AD657C41C)
Complete name : E:\Мои рипы\Дом напротив.2016.BDRip.1080p.DUB.mkv
Format : Matroska
Format version : Version 4 / Version 2
File size : 4.37 GiB
Duration : 1 h 26 min
Overall bit rate : 7 184 kb/s
Encoded date : UTC 2017-01-10 15:51:14
Writing application : mkvmerge v6.8.0 ('Theme for Great Cities') 32bit built on Mar 2 2014 21:27:07
Writing library : libebml v1.3.0 + libmatroska v1.4.1
Video
ID : 1
Format : AVC
Format/Info : Advanced Video Codec
Format profile : High@L4.1
Format settings, CABAC : Yes
Format settings, ReFrames : 5 frames
Codec ID : V_MPEG4/ISO/AVC
Duration : 1 h 26 min
Bit rate : 6 811 kb/s
Width : 1 920 pixels
Height : 804 pixels
Display aspect ratio : 2.40:1
Frame rate mode : Constant
Frame rate : 23.976 FPS
Color space : YUV
Chroma subsampling : 4:2:0
Bit depth : 8 bits
Scan type : Progressive
Bits/(Pixel*Frame) : 0.184
Stream size : 4.05 GiB (93%)
Writing library : x264 core 146 r2538 121396c
Encoding settings : cabac=1 / ref=5 / deblock=1:-3:-3 / analyse=0x3:0x113 / me=umh / subme=11 / psy=1 / psy_rd=1.00:0.15 / mixed_ref=1 / me_range=48 / chroma_me=1 / trellis=2 / 8x8dct=1 / cqm=0 / deadzone=21,11 / fast_pskip=0 / chroma_qp_offset=-4 / threads=6 / lookahead_threads=1 / sliced_threads=0 / nr=0 / decimate=1 / interlaced=0 / bluray_compat=0 / constrained_intra=0 / bframes=8 / b_pyramid=2 / b_adapt=2 / b_bias=0 / direct=2 / weightb=1 / open_gop=0 / weightp=2 / keyint=250 / keyint_min=23 / scenecut=40 / intra_refresh=0 / rc_lookahead=50 / rc=2pass / mbtree=0 / bitrate=6811 / ratetol=1.0 / qcomp=0.60 / qpmin=0 / qpmax=69 / qpstep=4 / cplxblur=20.0 / qblur=0.5 / vbv_maxrate=14000 / vbv_bufsize=14000 / nal_hrd=none / filler=0 / ip_ratio=1.40 / pb_ratio=1.30 / aq=2:1.00
Language : English
Default : Yes
Forced : No
Color range : Limited
Color primaries : Generic film
Matrix coefficients : YCgCo
Audio
ID : 2
Format : AC-3
Format/Info : Audio Coding 3
Mode extension : CM (complete main)
Format settings, Endianness : Big
Codec ID : A_AC3
Duration : 1 h 26 min
Bit rate mode : Constant
Bit rate : 384 kb/s
Channel(s) : 6 channels
Channel positions : Front: L C R, Side: L R, LFE
Sampling rate : 48.0 kHz
Frame rate : 31.250 FPS (1536 spf)
Compression mode : Lossy
Stream size : 239 MiB (5%)
Title : Дубляж (iTunes)
Language : Russian
Default : Yes
Forced : No
Menu
00:00:00.000 : en:Chapter 1
00:08:05.485 : en:Chapter 2
00:15:12.327 : en:Chapter 3
00:22:33.769 : en:Chapter 4
00:28:50.310 : en:Chapter 5
00:37:03.971 : en:Chapter 6
00:47:26.425 : en:Chapter 7
00:52:43.659 : en:Chapter 8
01:00:28.166 : en:Chapter 9
01:09:35.421 : en:Chapter 10
01:17:19.009 : en:Chapter 11
01:22:54.426 : en:Chapter 12
01:26:38.274 : en:Chapter 13

Знаете ли Вы, что...

Третий совместный проект режиссера Маркуса Данстэна и актера Джоша Стюарта в главной роли после дилогии «Коллекционер».
Скриншоты:




Показать сообщения:    

Текущее время: 31-Май 00:01

Часовой пояс: UTC + 11


Вы не можете начинать темы
Вы не можете отвечать на сообщения
Вы не можете редактировать свои сообщения
Вы не можете удалять свои сообщения
Вы не можете голосовать в опросах
Вы не можете прикреплять файлы к сообщениям
Вы не можете скачивать файлы

Сайт не предоставляет электронные версии произведений, а занимается лишь коллекционированием и каталогизацией ссылок, присылаемых и публикуемых на форуме нашими читателями. Если вы являетесь правообладателем какого-либо представленного материала и не желаете, чтобы ссылка на него находилась в нашем каталоге, свяжитесь с нами, и мы незамедлительно удалим ее. Файлы для обмена на трекере предоставлены пользователями сайта, и администрация не несет ответственности за их содержание. Просьба не заливать файлы, защищенные авторскими правами, а также файлы нелегального содержания!