+100


Топ за 24 часа
 
 

[Цитировать]

- Труп невесты / Corpse Bride (2005) BDRip [H.265/1080p-LQ]
-Производство: США, Великобритания / Laika Entertainment, Patalex Productions, Tim Burton Animation Co., Tim Burton Productions, Warner Bros. Pictures, Will Vinton Studios
Жанр: Мультфильм, Музыкальный, Фентези, Драма, Мелодрама
Режиссер: Тим Бёртон, Майк Джонсон
Персонажи: Джонни Депп, Хелена Бонем Картер, Эмили Уотсон, Трейси Уллмен, Пол Уайтхаус, Джоанна Ламли, Альберт Финни, Ричард Э. Грант, Кристофер Ли, Майкл Гоф
Описание:
Действие развивается в европейской деревушке XIX века. Главного героя - молодого человека Виктора - силы тьмы утаскивают в преисподнюю и женят там на таинственном Трупе Невесты, в то время как его настоящая невеста Виктория ожидает своего жениха в мире живых. Несмотря на то, что проживание в Царстве мертвых оказывается много интересней, чем его привычный викторианский образ жизни, Виктор понимает, что свою единственную любовь он не променяет ни на что ни в одном из альтернативных миров...

Рейтинг MPAA: PG (рекомендуется присутствие родителей)
Продолжительность: 01:17:12
Качество видео: BDRip-LQ
Перевод: Дублированный
Видео: HEVC/H.265, 1920x1080, ~4769 Kbps
Аудио: AC3, 6 ch, 384 Kbps, CBR

Трейлер

Общее
Уникальный идентификатор : 177613773544463134883491945292251864937 (0x859F2B22D91BC1E08FEA61685E451F69)
Полное имя : E:\Video\Труп невесты (Corpse Bride).mkv
Формат : Matroska
Версия формата : Version 4 / Version 2
Размер файла : 2,78 Гбайт
Продолжительность : 1 ч. 17 м.
Общий поток : 5155 Кбит/сек
Название фильма : Труп невесты / Corpse Bride
Дата кодирования : UTC 2017-01-10 06:07:09
Программа кодирования : mkvmerge v9.7.1 ('Pandemonium') 64bit
Библиотека кодирования : libebml v1.3.4 + libmatroska v1.4.5
Attachments : 44579aee3330ddc9d12eedb4ccead5ea.jpg
Видео
Идентификатор : 1
Формат : HEVC
Формат/Информация : High Efficiency Video Coding
Профиль формата : Main@L4@High
Идентификатор кодека : V_MPEGH/ISO/HEVC
Продолжительность : 1 ч. 17 м.
Битрейт : 4769 Кбит/сек
Ширина : 1920 пикселей
Высота : 1080 пикселей
Соотношение сторон : 16:9
Режим частоты кадров : Постоянный
Частота кадров : 23,976 (24000/1001) кадра/сек
Цветовое пространство : YUV
Субдискретизация насыщенности : 4:2:0
Битовая глубина : 8 бит
Бит/(Пиксели*Кадры) : 0.096
Размер потока : 2,57 Гбайт (93%)
Заголовок : La sposa cadavere (2005) - PirateMKV
Библиотека кодирования : x265 0.0:[Windows][GCC 5.4.0][64 bit] 8bit
Настройки программы : wpp / ctu=64 / min-cu-size=8 / max-tu-size=32 / tu-intra-depth=3 / tu-inter-depth=3 / me=2 / subme=4 / merange=57 / no-rect / no-amp / max-merge=3 / temporal-mvp / no-early-skip / rskip / rdpenalty=0 / no-tskip / no-tskip-fast / strong-intra-smoothing / no-lossless / no-cu-lossless / no-constrained-intra / fast-intra / open-gop / no-temporal-layers / interlace=0 / keyint=250 / min-keyint=23 / scenecut=40 / rc-lookahead=40 / lookahead-slices=0 / bframes=8 / bframe-bias=0 / b-adapt=2 / ref=5 / limit-refs=3 / limit-modes / weightp / weightb / aq-mode=3 / qg-size=32 / aq-strength=2.00 / cbqpoffs=0 / crqpoffs=0 / rd=4 / psy-rd=1.00 / rdoq-level=0 / psy-rdoq=0.00 / log2-max-poc-lsb=8 / no-rd-refine / signhide / deblock=-1:-1 / sao / no-sao-non-deblock / b-pyramid / no-cutree / no-intra-refresh / rc=crf / crf=22.4 / qcomp=0.60 / qpmin=0 / qpmax=69 / qpstep=4 / vbv-maxrate=30000 / vbv-bufsize=30000 / crf-max=0.0 / ipratio=1.40 / pbratio=1.30
Язык : English
Default : Да
Forced : Нет
Цветовой диапазон : Limited
Коэффициенты матрицы : BT.709
Аудио
Идентификатор : 2
Формат : AC-3
Формат/Информация : Audio Coding 3
Расширение режима : CM (complete main)
Параметр Endianness формата : Big
Идентификатор кодека : A_AC3
Продолжительность : 1 ч. 17 м.
Вид битрейта : Постоянный
Битрейт : 384 Кбит/сек
Каналы : 6 каналов
Расположение каналов : Front: L C R, Side: L R, LFE
Частота : 48,0 КГц
Частота кадров : 31,250 кадров/сек (1536 spf)
Метод сжатия : С потерями
Задержка видео : -42 мс.
Размер потока : 212 Мбайт (7%)
Заголовок : Перевод: Профессиональный (полное дублирование)
Язык : Russian
Default : Да
Forced : Нет
Меню
00:00:00.000 : en:00:00:00.000
00:02:21.308 : en:00:02:21.308
00:06:29.389 : en:00:06:29.389
00:10:46.145 : en:00:10:46.145
00:14:31.204 : en:00:14:31.204
00:18:53.966 : en:00:18:53.966
00:20:32.731 : en:00:20:32.731
00:23:58.771 : en:00:23:58.771
00:27:20.806 : en:00:27:20.806
00:30:27.659 : en:00:30:27.659
00:33:22.167 : en:00:33:22.167
00:36:17.509 : en:00:36:17.509
00:39:53.391 : en:00:39:53.391
00:43:21.098 : en:00:43:21.098
00:46:19.944 : en:00:46:19.944
00:48:54.598 : en:00:48:54.598
00:52:02.953 : en:00:52:02.953
00:54:50.454 : en:00:54:50.454
00:56:57.080 : en:00:56:57.080
01:00:15.445 : en:01:00:15.445
01:03:45.488 : en:01:03:45.488
01:07:41.057 : en:01:07:41.057
01:11:12.101 : en:01:11:12.101
01:13:26.402 : en:01:13:26.402
XMP
Xmp.video.FileName : E:\Video\Труп невесты (Corpse Bride).mkv
Xmp.video.FileSize : -1249.95
Xmp.video.MimeType : video/matroska
Xmp.video.EBMLVersion : 1
Xmp.video.EBMLReadVersion : 1
Xmp.video.DocType : matroska
Xmp.video.DocTypeVersion : 4
Xmp.video.DocTypeReadVersion : 2
Xmp.video.TimecodeScale : 0.001
Xmp.video.MuxingApp : libebml v1.3.4 + libmatroska v1.4.5
Xmp.video.WritingApp : mkvmerge v9.7.1 ('Pandemonium') 64bit
Xmp.video.Duration : 4631648
Xmp.video.DateUTC : 505721229
Xmp.video.Title : Труп невесты / Corpse Bride
Xmp.video.TotalStream : 16
Xmp.video.TrackLacing : No
Xmp.video.Codec : V_MPEGH/ISO/HEVC
Xmp.video.FrameRate : 23.976
Xmp.video.TrackName : Перевод: Профессиональный (полное дублирование)
Xmp.video.Width : 1920
Xmp.video.Height : 1080
Xmp.audio.Compressor : A_AC3
Xmp.audio.DefaultDuration : 32000
Xmp.audio.TrackLang : rus
Xmp.audio.SampleRate : 48000
Xmp.video.AttachFileName : 44579aee3330ddc9d12eedb4ccead5ea.jpg
Xmp.video.AttachFileMIME : image/jpeg
Xmp.video.AttachFileUID : 7609633488910564773
Xmp.video.AttachFileDesc : BD Cover
Xmp.video.AspectRatio : 16:9
Скриншоты:




Показать сообщения:    

Текущее время: 24-Ноя 07:37

Часовой пояс: UTC + 11


Вы не можете начинать темы
Вы не можете отвечать на сообщения
Вы не можете редактировать свои сообщения
Вы не можете удалять свои сообщения
Вы не можете голосовать в опросах
Вы не можете прикреплять файлы к сообщениям
Вы не можете скачивать файлы

Сайт не предоставляет электронные версии произведений, а занимается лишь коллекционированием и каталогизацией ссылок, присылаемых и публикуемых на форуме нашими читателями. Если вы являетесь правообладателем какого-либо представленного материала и не желаете, чтобы ссылка на него находилась в нашем каталоге, свяжитесь с нами, и мы незамедлительно удалим ее. Файлы для обмена на трекере предоставлены пользователями сайта, и администрация не несет ответственности за их содержание. Просьба не заливать файлы, защищенные авторскими правами, а также файлы нелегального содержания!