+100


Топ за 24 часа
 
 

[Цитировать]

- Комната разочарований / The Disappointments Room (2016) WEB-DL [H.264/1080p-LQ] -Производство: США, Demarest Films, Media Talent Group, Relativity Media
Жанр: Драма, Ужасы, Триллер
Режиссер: Д. Дж. Карузо
Актеры: Кейт Бекинсейл, Мел Райдо, Лукас Тилл, Дункан Джойнер, Джералд МакРэйни, Микаэла Конлин, Майкл Лэндис, Марсия Де Русс, Элла Джонс, Дженнифер Ли Манн
Описание:
Дана с мужем и сыном переезжает из города в сельскую местность. Они поселяются в большом доме, где под самой крышей есть странная комната. Что-то плохое случилось с Даной, от чего она пытается сбежать, но местные злые силы помогут разобраться в себе отчаявшейся женщине.

Рейтинг MPAA: R (лицам до 17 лет обязательно присутствие взрослого)
Дата мировой премьеры: 9 сентября 2016
Продолжительность: 01:25:15
Качество видео: WEB-DL
Перевод: Многоголосый закадровый, любительский (КОЛОБОК)
Вид субтитров: Отсутствуют
Реклама: Имеется реклама от спонсора.
Видео: MPEG-4 AVC, 1916x800, 4 931 Кбит/с
Аудио: Русский AC3, 2 ch, 384 Кбит/с

MediaInfo

General
Complete name : O:\The.Disappointments.Room.2016.P.WEB-DL.1080p.mkv
Format : Matroska
File size : 3.24 GiB
Duration : 1h 25mn
Overall bit rate : 5 423 Kbps
Encoded date : UTC 2017-01-10 18:15:33
Writing application : mkvmerge v8.3.0 ('Over the Horizon') 64bit
Writing library : libebml v1.3.1 + libmatroska v1.4.2
Video
ID : 1
Format : AVC
Format/Info : Advanced Video Codec
Format profile : High@L4.1
Format settings, CABAC : Yes
Format settings, ReFrames : 5 frames
Muxing mode : Container profile=Unknown@4.1
Codec ID : V_MPEG4/ISO/AVC
Duration : 1h 25mn
Bit rate : 4 931 Kbps
Width : 1 916 pixels
Height : 800 pixels
Display aspect ratio : 2.35:1
Frame rate : 23.976 fps
Standard : Component
Resolution : 8 bits
Colorimetry : 4:2:0
Scan type : Progressive
Bits/(Pixel*Frame) : 0.134
Stream size : 2.95 GiB (91%)
Color primaries : BT.709-5, BT.1361, IEC 61966-2-4, SMPTE RP177
Transfer characteristics : BT.709-5, BT.1361
Matrix coefficients : BT.709-5, BT.1361, IEC 61966-2-4 709, SMPTE RP177
Audio
ID : 2
Format : AC-3
Format/Info : Audio Coding 3
Codec ID : A_AC3
Duration : 1h 25mn
Bit rate mode : Constant
Bit rate : 384 Kbps
Channel(s) : 2 channels
Channel positions : L R
Sampling rate : 48.0 KHz
Stream size : 235 MiB (7%)
Скриншоты:




Показать сообщения:    

Текущее время: 17-Янв 22:05

Часовой пояс: UTC + 11


Вы не можете начинать темы
Вы не можете отвечать на сообщения
Вы не можете редактировать свои сообщения
Вы не можете удалять свои сообщения
Вы не можете голосовать в опросах
Вы не можете прикреплять файлы к сообщениям
Вы не можете скачивать файлы

Сайт не предоставляет электронные версии произведений, а занимается лишь коллекционированием и каталогизацией ссылок, присылаемых и публикуемых на форуме нашими читателями. Если вы являетесь правообладателем какого-либо представленного материала и не желаете, чтобы ссылка на него находилась в нашем каталоге, свяжитесь с нами, и мы незамедлительно удалим ее. Файлы для обмена на трекере предоставлены пользователями сайта, и администрация не несет ответственности за их содержание. Просьба не заливать файлы, защищенные авторскими правами, а также файлы нелегального содержания!