+100


Топ за 24 часа
 
 

[Цитировать]

- Американская милашка / American Honey (2016) HDRip -Производство: Великобритания, США, British Film Institute (BFI), Film4, Maven Pictures
Жанр: Драма
Режиссер: Андреа Арнольд
Актеры: Саша Лэйн, Шайа ЛаБаф, Райли Кио, МакКаул Ломбарди, Ариэль Холмс, Кристал Айс, Вероника Эзелл, Чад Кокс, Гарри Хауэлл, Кеннет Кори Такер
Описание:
18-летняя Стар никогда не покидала родного городка. Влюбившись с первого взгляда в парня из проезжавшего мимо микроавтобуса, она, не долго думая, отправляется колесить по Среднему Западу в компании таких же неприкаянных подростков, продающих подписку на журналы. Молодость и радость — новые места, первая любовь, первые заработанные деньги и первый настоящий жизненный опыт.

Рейтинг MPAA: R (лицам до 17 лет обязательно присутствие взрослого)
Дата мировой премьеры: 15 мая 2016
Продолжительность: 02:43:32
Качество видео: HDRip
Перевод: Многоголосый закадровый, любительский
Озвучка / Автор перевода: @MUZOBOZ@
Вид субтитров: Отсутствуют
Реклама: Присутствуют аудио и видео вставки рекламы
Видео: XviD, 720x544, 1 594 Кбит/с
Аудио: Русский AC3, 2 ch, 192 Кбит/с

MediaInfo

General
Complete name : O:\American.Honey.2016.P.HDRip.2100MB.avi
Format : AVI
Format/Info : Audio Video Interleave
Format profile : OpenDML
File size : 2.05 GiB
Duration : 2h 43mn
Overall bit rate : 1 798 Kbps
Writing application : VirtualDubMod 1.5.10.2 (build 2540/release)
Writing library : VirtualDubMod build 2540/release
Video
ID : 0
Format : MPEG-4 Visual
Format profile : Advanced Simple@L5
Format settings, BVOP : Yes
Format settings, QPel : No
Format settings, GMC : No warppoints
Format settings, Matrix : Default (MPEG)
Codec ID : XVID
Codec ID/Hint : XviD
Duration : 2h 43mn
Bit rate : 1 594 Kbps
Width : 720 pixels
Height : 544 pixels
Display aspect ratio : 4:3
Frame rate : 23.976 fps
Resolution : 8 bits
Colorimetry : 4:2:0
Scan type : Progressive
Bits/(Pixel*Frame) : 0.170
Stream size : 1.82 GiB (89%)
Writing library : XviD 1.2.1 (UTC 2008-12-04)
Audio
ID : 1
Format : AC-3
Format/Info : Audio Coding 3
Codec ID : 2000
Duration : 2h 43mn
Bit rate mode : Constant
Bit rate : 192 Kbps
Channel(s) : 2 channels
Channel positions : L R
Sampling rate : 48.0 KHz
Stream size : 225 MiB (11%)
Alignment : Split accross interleaves
Interleave, duration : 42 ms (1.00 video frame)
Interleave, preload duration : 500 ms
Скриншоты:




Показать сообщения:    

Текущее время: 31-Май 00:02

Часовой пояс: UTC + 11


Вы не можете начинать темы
Вы не можете отвечать на сообщения
Вы не можете редактировать свои сообщения
Вы не можете удалять свои сообщения
Вы не можете голосовать в опросах
Вы не можете прикреплять файлы к сообщениям
Вы не можете скачивать файлы

Сайт не предоставляет электронные версии произведений, а занимается лишь коллекционированием и каталогизацией ссылок, присылаемых и публикуемых на форуме нашими читателями. Если вы являетесь правообладателем какого-либо представленного материала и не желаете, чтобы ссылка на него находилась в нашем каталоге, свяжитесь с нами, и мы незамедлительно удалим ее. Файлы для обмена на трекере предоставлены пользователями сайта, и администрация не несет ответственности за их содержание. Просьба не заливать файлы, защищенные авторскими правами, а также файлы нелегального содержания!