+100


Топ за 24 часа
 
 

[Цитировать]

- Американская милашка / American Honey (2016) BDRip [H.264/1080p]-Производство: Великобритания, США, British Film Institute (BFI), Film4, Maven Pictures
Жанр: Драма
Режиссер: Андреа Арнольд
Актеры: Саша Лэйн, Шайа ЛаБаф, Райли Кио, МакКаул Ломбарди, Ариэль Холмс, Кристал Айс, Вероника Эзелл, Чад Кокс, Гарри Хауэлл, Кеннет Кори Такер
Описание:
18-летняя Стар никогда не покидала родного городка. Влюбившись с первого взгляда в парня из проезжавшего мимо микроавтобуса, она, не долго думая, отправляется колесить по Среднему Западу в компании таких же неприкаянных подростков, продающих подписку на журналы. Молодость и радость — новые места, первая любовь, первые заработанные деньги и первый настоящий жизненный опыт.

Рейтинг MPAA: R (лицам до 17 лет обязательно присутствие взрослого)
Дата мировой премьеры: 15 мая 2016
Продолжительность: 02:43:32
Качество видео: BDRip
Перевод: Многоголосый закадровый, любительский
Озвучка / Автор перевода: @MUZOBOZ@
Вид субтитров: Отсутствуют
Реклама: Присутствуют аудио и видео вставки рекламы
Видео: MPEG-4 AVC, 1440x1080, 9 699 Кбит/с
Аудио: Русский AC3, 2 ch, 640 Кбит/с

MediaInfo

General
Complete name : O:\American.Honey.2016.P.BDRip.1080p.mkv
Format : Matroska
File size : 12.1 GiB
Duration : 2h 43mn
Overall bit rate : 10.5 Mbps
Encoded date : UTC 2017-01-10 18:03:10
Writing application : mkvmerge v8.3.0 ('Over the Horizon') 64bit
Writing library : libebml v1.3.1 + libmatroska v1.4.2
Video
ID : 1
Format : AVC
Format/Info : Advanced Video Codec
Format profile : High@L4.1
Format settings, CABAC : Yes
Format settings, ReFrames : 5 frames
Muxing mode : Container profile=Unknown@4.1
Codec ID : V_MPEG4/ISO/AVC
Duration : 2h 43mn
Bit rate : 9 699 Kbps
Width : 1 440 pixels
Height : 1 080 pixels
Display aspect ratio : 4:3
Frame rate : 23.976 fps
Standard : Component
Resolution : 8 bits
Colorimetry : 4:2:0
Scan type : Progressive
Bits/(Pixel*Frame) : 0.260
Stream size : 11.1 GiB (92%)
Color primaries : BT.709-5, BT.1361, IEC 61966-2-4, SMPTE RP177
Transfer characteristics : BT.709-5, BT.1361
Matrix coefficients : BT.709-5, BT.1361, IEC 61966-2-4 709, SMPTE RP177
Audio
ID : 2
Format : AC-3
Format/Info : Audio Coding 3
Codec ID : A_AC3
Duration : 2h 43mn
Bit rate mode : Constant
Bit rate : 640 Kbps
Channel(s) : 2 channels
Channel positions : L R
Sampling rate : 48.0 KHz
Stream size : 749 MiB (6%)
Скриншоты:




Показать сообщения:    

Текущее время: 25-Июл 17:46

Часовой пояс: UTC + 11


Вы не можете начинать темы
Вы не можете отвечать на сообщения
Вы не можете редактировать свои сообщения
Вы не можете удалять свои сообщения
Вы не можете голосовать в опросах
Вы не можете прикреплять файлы к сообщениям
Вы не можете скачивать файлы

Сайт не предоставляет электронные версии произведений, а занимается лишь коллекционированием и каталогизацией ссылок, присылаемых и публикуемых на форуме нашими читателями. Если вы являетесь правообладателем какого-либо представленного материала и не желаете, чтобы ссылка на него находилась в нашем каталоге, свяжитесь с нами, и мы незамедлительно удалим ее. Файлы для обмена на трекере предоставлены пользователями сайта, и администрация не несет ответственности за их содержание. Просьба не заливать файлы, защищенные авторскими правами, а также файлы нелегального содержания!