+100


Топ за 24 часа
 
 

[Цитировать]

- Мой любимый папа (2014) HDTVRip (серии 1-8 из 8) -Производство: Россия
Жанр: криминал, мелодрама
Режиссер: Игорь Штернберг
Актеры: Николай Добрынин, Лиза Арзамасова, Юрий Назаров, Тимофей Каратаев, Игорь Штернберг, Марина Яковлева, Алексей Маслов, Людмила Мальцева, Константин Балакирев, Алексей Артамонов и др.
Описание:
Иорданов, некогда успешный художник, зарабатывает на жизнь подделывая картины. Однажды обман раскрывается, и бандиты-заказчики выставляют Иорданову миллионный счет. Выход находится спонтанно: по телевизору герой видит девушку Наташу, которая разыскивает своего отца, внешне очень похожего на него, к тому же его тезку. Иорданов решает поехать к Наташе в северное село Емельяновку, назваться отцом и «затаиться». Но удастся ли его план?

Возраст: 12+ (зрителям, достигшим 12 лет)
Дата мировой премьеры: 14 января 2015
Дата российской премьеры: 7 января 2017
Продолжительность: ~00:44:00 серия
Качество видео: HDTVRip
Видео: Xvid, 720x400 (16:9), ~1562 kbps
Аудио: AC3, 2 ch, 192 kbps

MediaInfo

Общее
Полное имя : D:\Загрузки uTorrent\Мой любимый папа.2016.HDTVRip.XviD\01.Мой любимый папа.2016.HDTVRip.XviD.avi
Формат : AVI
Формат/Информация : Audio Video Interleave
Размер файла : 550 Мбайт
Продолжительность : 43 м. 36 с.
Общий поток : 1764 Кбит/сек
Программа кодирования : VirtualDubMod 1.5.10.3 | www.virtualdub-fr.org || (build 2550/release)
Библиотека кодирования : VirtualDubMod build 2550/release
Видео
Идентификатор : 0
Формат : MPEG-4 Visual
Профиль формата : Advanced Simple@L5
Параметр BVOP формата : 1
Параметр QPel формата : Нет
Параметр GMC формата : Без точки перехода
Параметр матрицы формата : Выборочная
Идентификатор кодека : XVID
Идентификатор кодека/Подсказка : XviD
Продолжительность : 43 м. 36 с.
Битрейт : 1562 Кбит/сек
Ширина : 720 пикселей
Высота : 400 пикселей
Соотношение сторон : 16:9
Частота кадров : 25,000 кадров/сек
Цветовое пространство : YUV
Субдискретизация насыщенности : 4:2:0
Битовая глубина : 8 бит
Тип развёртки : Прогрессивная
Метод сжатия : С потерями
Бит/(Пиксели*Кадры) : 0.217
Размер потока : 487 Мбайт (89%)
Библиотека кодирования : XviD 73
Аудио
Идентификатор : 1
Формат : AC-3
Формат/Информация : Audio Coding 3
Расширение режима : CM (complete main)
Параметр Endianness формата : Big
Идентификатор кодека : 2000
Продолжительность : 43 м. 36 с.
Вид битрейта : Постоянный
Битрейт : 192 Кбит/сек
Каналы : 2 канала
Расположение каналов : Front: L R
Частота : 48,0 КГц
Частота кадров : 31,250 кадров/сек (1536 spf)
Битовая глубина : 16 бит
Метод сжатия : С потерями
Размер потока : 59,9 Мбайт (11%)
Выравнивание : Разделение по промежуткам
Продолжительность промежутка : 40 мс. (1,00 видеокадр)
Время предзагрузки промежутка : 500 мс.
Скриншоты:




Показать сообщения:    

Текущее время: 23-Фев 20:26

Часовой пояс: UTC + 11


Вы не можете начинать темы
Вы не можете отвечать на сообщения
Вы не можете редактировать свои сообщения
Вы не можете удалять свои сообщения
Вы не можете голосовать в опросах
Вы не можете прикреплять файлы к сообщениям
Вы не можете скачивать файлы

Сайт не предоставляет электронные версии произведений, а занимается лишь коллекционированием и каталогизацией ссылок, присылаемых и публикуемых на форуме нашими читателями. Если вы являетесь правообладателем какого-либо представленного материала и не желаете, чтобы ссылка на него находилась в нашем каталоге, свяжитесь с нами, и мы незамедлительно удалим ее. Файлы для обмена на трекере предоставлены пользователями сайта, и администрация не несет ответственности за их содержание. Просьба не заливать файлы, защищенные авторскими правами, а также файлы нелегального содержания!