+100


Топ за 24 часа
 
 

[Цитировать]

- Классные мужики (2010) WEB-DLRip [H.264/720p-LQ] (серии 1-8 из 8) -Производство: Россия / Кобура ТВ
Жанр: комедия
Режиссер: Олег Фомин
Актеры: Светлана Иванова, Владимир Ильин, Александр Феклистов, Ксения Буравская, Алексей Воробьев, Евгений Пронин, Олег Фомин, Людмила Артемьева, Луиза Мосендз, Галина Польских, Владимир Долинский, Мария Кожевникова, Роман Мадянов и др.
Описание:
Они уже 20 лет живут вместе за городом в большом деревянном доме в чеховском стиле - бывший драматург Микки и когда-то знаменитый музыкант Ники. Михаил Желяев и Николай Аркадьевич Подражанский. Зеленый змий и жизненные неудачи сделали из них почти опустившихся людей, оставили их без семей, счастья, славы и прежних гонораров....

Возраст: 16+ (зрителям, достигшим 16 лет)
Продолжительность: ~00:44:00 серия
Качество видео: WEB-DLRip
Видео: AVC/H.264, 1280x720 (16:9), ~1637 Kbps
Аудио: AC3, 2 ch, 192, CBR

MediaInfo

Общее
Уникальный идентификатор : 221322434903310426481718628430628879439 (0xA68126857F27E935A16430ADD4457C4F)
Полное имя : G:\Классные мужики (2010)\Серия 1.mkv
Формат : Matroska
Версия формата : Version 4 / Version 2
Размер файла : 575 Мбайт
Продолжительность : 43 м. 55 с.
Общий поток : 1830 Кбит/сек
Дата кодирования : UTC 2017-01-09 16:59:29
Программа кодирования : mkvmerge v9.7.1 ('Pandemonium') 64bit
Библиотека кодирования : libebml v1.3.4 + libmatroska v1.4.5 / Lavf57.25.100
Видео
Идентификатор : 1
Формат : AVC
Формат/Информация : Advanced Video Codec
Профиль формата : Main@L3.1
Параметр CABAC формата : Да
Параметр ReFrames формата : 3 кадра
Идентификатор кодека : V_MPEG4/ISO/AVC
Продолжительность : 43 м. 55 с.
Битрейт : 1637 Кбит/сек
Ширина : 1280 пикселей
Высота : 720 пикселей
Соотношение сторон : 16:9
Режим частоты кадров : Постоянный
Частота кадров : 25,000 кадров/сек
Цветовое пространство : YUV
Субдискретизация насыщенности : 4:2:0
Битовая глубина : 8 бит
Тип развёртки : Прогрессивная
Бит/(Пиксели*Кадры) : 0.071
Размер потока : 514 Мбайт (89%)
Default : Да
Forced : Нет
Цветовой диапазон : Limited
Основные цвета : BT.709
Характеристики трансфера : BT.709
Коэффициенты матрицы : BT.709
Аудио
Идентификатор : 2
Формат : AC-3
Формат/Информация : Audio Coding 3
Расширение режима : CM (complete main)
Параметр Endianness формата : Big
Идентификатор кодека : A_AC3
Продолжительность : 43 м. 55 с.
Вид битрейта : Постоянный
Битрейт : 192 Кбит/сек
Каналы : 2 канала
Расположение каналов : Front: L R
Частота : 44,1 КГц
Частота кадров : 28,711 кадров/сек (1536 spf)
Битовая глубина : 16 бит
Метод сжатия : С потерями
Задержка видео : -40 мс.
Размер потока : 60,3 Мбайт (10%)
Default : Да
Forced : Нет
Скриншоты:




Показать сообщения:    

Текущее время: 26-Фев 03:01

Часовой пояс: UTC + 11


Вы не можете начинать темы
Вы не можете отвечать на сообщения
Вы не можете редактировать свои сообщения
Вы не можете удалять свои сообщения
Вы не можете голосовать в опросах
Вы не можете прикреплять файлы к сообщениям
Вы не можете скачивать файлы

Сайт не предоставляет электронные версии произведений, а занимается лишь коллекционированием и каталогизацией ссылок, присылаемых и публикуемых на форуме нашими читателями. Если вы являетесь правообладателем какого-либо представленного материала и не желаете, чтобы ссылка на него находилась в нашем каталоге, свяжитесь с нами, и мы незамедлительно удалим ее. Файлы для обмена на трекере предоставлены пользователями сайта, и администрация не несет ответственности за их содержание. Просьба не заливать файлы, защищенные авторскими правами, а также файлы нелегального содержания!