+100


Топ за 24 часа
 
 

[Цитировать]

- Джек Ричер 2: Никогда не возвращайся / Jack Reacher: Never Go Back (2016) WEBRip [H.264/1080p-LQ]-Производство: Китай, США, Huahua Film & Media Culture, Paramount Pictures, Shanghai Film Group
Жанр: Боевик, Триллер, Криминал
Режиссер: Эдвард Цвик
Продюсер: Том Круз, Дон Грэйнджер, Кристофер МакКуорри
Актеры: Том Круз, Коби Смолдерс, Роберт Неппер, Даника Ярош, Нинджа Н. Деву, Элдис Ходж, Холт МакКэллани, Мэдалин Хорчер, Чейз Савой, Сью-Линн Ансари
Описание:
Экс-военный Джек Ричер приезжает в Вашингтон, чтобы впервые встретиться с майором Сьюзен Тернер, которая возглавила его бывшее подразделение и не раз выручала его в непростых ситуациях. По странному стечению обстоятельств буквально накануне его визита майора арестовывают по обвинению в измене… Ричеру, уверенному в невиновности Сьюзен, предстоит освободить ее и раскрыть заговор, ниточки которого тянутся на самый верх. Стремясь докопаться до правды, он также делает поразительное открытие, способное раз и навсегда изменить его жизнь…

Возраст: 16+ (зрителям, достигшим 16 лет)
Рейтинг MPAA: PG-13 (детям до 13 лет просмотр нежелателен)
Дата мировой премьеры: 19 октября 2016
Дата российской премьеры: 20 октября 2016, «Централ Партнершип»
Продолжительность: 01:58:04
Качество видео: WEBRip
Перевод: Дублированный (Чистый звук)
Вид субтитров: Вшитые неотключаемые
Язык субтитров: Корейский
Реклама: Присутствуют голосовые и текстовые вставки рекламы.
Видео: AVC/H.264, 1920x800 (2.40:1), 5099 kbps
Аудио: 48 kHz, AC3 Dolby Digital, 2/0 (L,R) ch, ~384 kbps

MediaInfo

Общее
Уникальный идентификатор : 254738207722359598734320072271218539550 (0xBFA4CB523639D153A7E09579BDE6FC1E)
Полное имя : D:\Джек.Ричер.2.Никогда.не.возвращайся.2016.WEBRip.[1080p].NNMClub.mkv
Формат : Matroska
Версия формата : Version 4 / Version 2
Размер файла : 4,52 Гбайт
Продолжительность : 1 ч. 58 м.
Режим общего битрейта : Переменный
Общий поток : 5486 Кбит/сек
Название фильма : Джек.Ричер.2.Никогда.не.возвращайся.2016.WEBRip.[1080p].NNMClub
Дата кодирования : UTC 2017-01-09 19:24:34
Программа кодирования : mkvmerge v8.3.0 ('Over the Horizon') 64bit
Библиотека кодирования : libebml v1.3.1 + libmatroska v1.4.2
Видео
Идентификатор : 1
Формат : AVC
Формат/Информация : Advanced Video Codec
Профиль формата : High@L4.1
Параметр CABAC формата : Да
Параметр ReFrames формата : 5 кадров
Идентификатор кодека : V_MPEG4/ISO/AVC
Продолжительность : 1 ч. 58 м.
Вид битрейта : Переменный
Битрейт : 5099 Кбит/сек
Максимальный битрейт : 5500 Кбит/сек
Ширина : 1920 пикселей
Высота : 800 пикселей
Соотношение сторон : 2,40:1
Режим частоты кадров : Постоянный
Частота кадров : 29,970 (30000/1001) кадров/сек
Стандарт вещания : Component
Цветовое пространство : YUV
Субдискретизация насыщенности : 4:2:0
Битовая глубина : 8 бит
Тип развёртки : Прогрессивная
Бит/(Пиксели*Кадры) : 0.111
Размер потока : 4,21 Гбайт (93%)
Заголовок : Джек.Ричер.2.Никогда.не.возвращайся.2016.WEBRip.[1080p].NNMClub
Язык : English
Default : Да
Forced : Нет
Цветовой диапазон : Limited
Основные цвета : BT.709
Характеристики трансфера : BT.709
Коэффициенты матрицы : BT.709
Аудио
Идентификатор : 2
Формат : AC-3
Формат/Информация : Audio Coding 3
Расширение режима : CM (complete main)
Параметр Endianness формата : Big
Идентификатор кодека : A_AC3
Продолжительность : 1 ч. 58 м.
Вид битрейта : Постоянный
Битрейт : 384 Кбит/сек
Каналы : 2 канала
Расположение каналов : Front: L R
Частота : 48,0 КГц
Частота кадров : 31,250 кадров/сек (1536 spf)
Метод сжатия : С потерями
Задержка видео : 1 мс.
Размер потока : 324 Мбайт (7%)
Заголовок : Line
Язык : Russian
Default : Да
Forced : Нет
Скриншоты:




Показать сообщения:    

Текущее время: 29-Апр 02:53

Часовой пояс: UTC + 11


Вы не можете начинать темы
Вы не можете отвечать на сообщения
Вы не можете редактировать свои сообщения
Вы не можете удалять свои сообщения
Вы не можете голосовать в опросах
Вы не можете прикреплять файлы к сообщениям
Вы не можете скачивать файлы

Сайт не предоставляет электронные версии произведений, а занимается лишь коллекционированием и каталогизацией ссылок, присылаемых и публикуемых на форуме нашими читателями. Если вы являетесь правообладателем какого-либо представленного материала и не желаете, чтобы ссылка на него находилась в нашем каталоге, свяжитесь с нами, и мы незамедлительно удалим ее. Файлы для обмена на трекере предоставлены пользователями сайта, и администрация не несет ответственности за их содержание. Просьба не заливать файлы, защищенные авторскими правами, а также файлы нелегального содержания!