+100


Топ за 24 часа
 
 

[Цитировать]

- Смертельная Гонка 2050 / Death Race 2050 (2017) HDRip-Производство: США, New Horizons Picture, Universal 1440 Entertainment
Жанр: Фантастика, Комедия, Боевик
Режиссер: Гилберт Джон
Продюсер: Роджер Корман, Джули Корман
Актеры: Ману Беннетт, Малкольм МакДауэлл, Марсия Миллер, Берт Гринстед, Фолаке Оловофойеку, Энесса Ремси, Янси Батлер, Чарли Фаррелл, Шэнна Олсон
Описание:
"Смертельная гонка" - ежегодное национальное шоу Америки, активно рекламируемое президентом. Несколько экипажей, состоящих из водителя и штурмана, должны не только как можно быстрее пересечь США, но и набрать как можно больше очков. Очки же даются за сбитых пешеходов: 10 очков за взрослого, 20 за ребенка и 50 за престарелых граждан.

Рейтинг MPAA: R (лицам до 17 лет обязательно присутствие взрослого)
Продолжительность: 01:33:03
Качество видео: HDRip
Перевод: Многоголосый закадровый, любительский
Озвучка / Автор перевода: @MUZOBOZ@
Язык субтитров: Отсутствует
Реклама: Присутствуют аудио и видео вставки рекламы
Видео: XviD, 720x400, 1648 Кбит/с
Аудио: Русский AC3, 2 ch, 448 Кбит/с

MediaInfo

General
Complete name : O:\)))))))\Death.Race.2050.2017.P.HDRip.14OOMB.avi
Format : AVI
Format/Info : Audio Video Interleave
File size : 1.37 GiB
Duration : 1h 33mn
Overall bit rate : 2 105 Kbps
Writing application : VirtualDubMod 1.5.10.2 (build 2540/release)
Writing library : VirtualDubMod build 2540/release
Video
ID : 0
Format : MPEG-4 Visual
Format profile : Advanced Simple@L5
Format settings, BVOP : Yes
Format settings, QPel : No
Format settings, GMC : No warppoints
Format settings, Matrix : Default (MPEG)
Codec ID : XVID
Codec ID/Hint : XviD
Duration : 1h 33mn
Bit rate : 1 648 Kbps
Width : 720 pixels
Height : 400 pixels
Display aspect ratio : 16:9
Frame rate : 23.976 fps
Resolution : 8 bits
Colorimetry : 4:2:0
Scan type : Progressive
Bits/(Pixel*Frame) : 0.239
Stream size : 1.07 GiB (78%)
Writing library : XviD 1.2.1 (UTC 2008-12-04)
Audio
ID : 1
Format : AC-3
Format/Info : Audio Coding 3
Codec ID : 2000
Duration : 1h 33mn
Bit rate mode : Constant
Bit rate : 448 Kbps
Channel(s) : 2 channels
Channel positions : L R
Sampling rate : 48.0 KHz
Stream size : 298 MiB (21%)
Alignment : Split accross interleaves
Interleave, duration : 42 ms (1.00 video frame)
Interleave, preload duration : 500 ms
Скриншоты:




Показать сообщения:    

Текущее время: 22-Фев 12:32

Часовой пояс: UTC + 11


Вы не можете начинать темы
Вы не можете отвечать на сообщения
Вы не можете редактировать свои сообщения
Вы не можете удалять свои сообщения
Вы не можете голосовать в опросах
Вы не можете прикреплять файлы к сообщениям
Вы не можете скачивать файлы

Сайт не предоставляет электронные версии произведений, а занимается лишь коллекционированием и каталогизацией ссылок, присылаемых и публикуемых на форуме нашими читателями. Если вы являетесь правообладателем какого-либо представленного материала и не желаете, чтобы ссылка на него находилась в нашем каталоге, свяжитесь с нами, и мы незамедлительно удалим ее. Файлы для обмена на трекере предоставлены пользователями сайта, и администрация не несет ответственности за их содержание. Просьба не заливать файлы, защищенные авторскими правами, а также файлы нелегального содержания!