+100


 

[Цитировать]

-Плохие парни / Bad Boys (1995-2003) BDRip [H.264/1080p-LQ] [Дилогия]«Мы вместе гуляем и вместе умрем… плохие парни навсегда.»-Производство: США
Жанр: Боевик, Комедия, Криминал
Режиссер: Майкл Бэй
Актеры: Уилл Смит, Мартин Лоуренс, Теа Леони, Чеки Карио, Джо Пантольяно, Марг Хельгенбергер, Нестор Серрано, Хулио Оскар Мечосо, Тереза Рэндл, Саверио Гуэрра, Гэбриэл Юнион, Хорди Молья, Петер Стормаре, Майкл Шеннон, Джон Седа, Юл Васкес
Описание:
Детективы полиции Майами Маркус Бернетт и Майк Лоури полная противоположность другу. Бернетт примерный семьянин, воспитывает троих детей, еле сводя концы с концами. Лоури же, напротив, богат и сполна пользуется всеми благами холостяцкой жизни. Они не только напарники, но и верные друзья их объединяет работа в полиции.
Релиз от: Torrent King (Alex)
Продолжительность: 01:58:50, 02:26:44
Качество видео: BDRip
Перевод: Дублированный
Видео: AVC/H.264, 1920x1032 - 1920x800, ~7 820 - 9 850 kbps
Аудио: AC3, 6 ch, 448 kbps, CBR

Плохие парни / Bad Boys (1995)

-Плохие парни / Bad Boys«Лучшие друзья. Отличные полицейские. Преступность обречена»-Производство: США
Жанр: Боевик, Комедия, Криминал
Режиссер: Майкл Бэй
Актеры: Уилл Смит, Мартин Лоуренс, Теа Леони, Чеки Карио, Джо Пантольяно, Марг Хельгенбергер, Нестор Серрано, Хулио Оскар Мечосо, Тереза Рэндл, Саверио Гуэрра
Описание:
Детективы полиции Майами Маркус Бернетт и Майк Лоури полная противоположность другу. Бернетт примерный семьянин, воспитывает троих детей, еле сводя концы с концами. Лоури же, напротив, богат и сполна пользуется всеми благами холостяцкой жизни. Они не только напарники, но и верные друзья. Однажды группа бандитов похитила из хранилища полиции крупную партию героина, стоимостью в 100 млн. долларов. Для Маркуса и Майка это сильный удар, поскольку эти наркотики были изъяты в крупнейшем деле их карьеры. Новым заданием для напарников становится поймать эту группу, иначе участок, в котором парни проработали не один год, будет закрыт. Для выполнения этого задания друзьям придется поменяться местами…

Возраст: 16+ (зрителям, достигшим 16 лет)
Рейтинг MPAA: R (лицам до 17 лет обязательно присутствие взрослого)
Продолжительность: 01:58:50
Качество видео: BDRip
Перевод: Дублированный
Видео: AVC/H.264, 1920x1032, ~9 850 kbps
Аудио: AC3, 6 ch, 448 kbps, CBR

MediaInfo

General
Unique ID : 191398730484302365258968587512557499944 (0x8FFE0DFC9BA514EF9A13D95426C67628)
Complete name : D:\Загрузки\Плохие парни (1995-2003) BDRip [1080p] Дилогия\Плохие парни (1995).mkv
Format : Matroska
Format version : Version 4 / Version 2
File size : 8.36 GiB
Duration : 1 h 58 min
Overall bit rate : 10.1 Mb/s
Movie name : Плохие парни (1995)
Encoded date : UTC 2017-01-08 00:44:44
Writing application : mkvmerge v7.9.0 ('Birds') 64bit
Writing library : libebml v1.3.1 + libmatroska v1.4.2
Attachments : poster.jpg
Video
ID : 1
Format : AVC
Format/Info : Advanced Video Codec
Format profile : High@L4.1
Format settings, CABAC : Yes
Format settings, ReFrames : 4 frames
Codec ID : V_MPEG4/ISO/AVC
Duration : 1 h 58 min
Bit rate : 9 850 kb/s
Width : 1 920 pixels
Height : 1 032 pixels
Display aspect ratio : 1.85:1
Frame rate mode : Constant
Frame rate : 23.976 (24000/1001) FPS
Color space : YUV
Chroma subsampling : 4:2:0
Bit depth : 8 bits
Scan type : Progressive
Bits/(Pixel*Frame) : 0.207
Stream size : 7.98 GiB (96%)
Title : Плохие парни -Alex-
Writing library : x264 core 148 r2744M b97ae06
Encoding settings : cabac=1 / ref=3 / deblock=1:-2:-2 / analyse=0x3:0x113 / me=hex / subme=7 / psy=1 / psy_rd=1.00:0.25 / mixed_ref=1 / me_range=16 / chroma_me=1 / trellis=1 / 8x8dct=1 / cqm=0 / deadzone=6,6 / fast_pskip=1 / chroma_qp_offset=-4 / threads=7 / lookahead_threads=3 / sliced_threads=0 / nr=0 / decimate=0 / interlaced=0 / bluray_compat=0 / constrained_intra=0 / bframes=12 / b_pyramid=2 / b_adapt=2 / b_bias=0 / direct=3 / weightb=1 / open_gop=0 / weightp=2 / keyint=230 / keyint_min=23 / scenecut=40 / intra_refresh=0 / rc_lookahead=40 / rc=abr / mbtree=1 / bitrate=9850 / ratetol=1.0 / qcomp=0.80 / qpmin=0 / qpmax=69 / qpstep=4 / ip_ratio=1.10 / aq=1:0.50
Language : English
Default : Yes
Forced : No
Audio
ID : 2
Format : AC-3
Format/Info : Audio Coding 3
Mode extension : CM (complete main)
Format settings, Endianness : Big
Codec ID : A_AC3
Duration : 1 h 58 min
Bit rate mode : Constant
Bit rate : 448 kb/s
Channel(s) : 6 channels
Channel positions : Front: L C R, Side: L R, LFE
Sampling rate : 48.0 kHz
Frame rate : 31.250 FPS (1536 spf)
Bit depth : 16 bits
Compression mode : Lossy
Delay relative to video : 180 ms
Stream size : 381 MiB (4%)
Title : Дублированный
Language : Russian
Default : Yes
Forced : Yes
Скриншоты:
-

Плохие парни 2 / Bad Boys II (2003)

-Плохие парни 2 / Bad Boys II«Плохие парни навсегда»-Производство: США
Жанр: Боевик, Комедия, Криминал
Режиссер: Майкл Бэй
Актеры: Уилл Смит, Мартин Лоуренс, Гэбриэл Юнион, Хорди Молья, Петер Стормаре, Тереза Рэндл, Джо Пантольяно, Майкл Шеннон, Джон Седа, Юл Васкес
Описание:
Маркус Бэрнетт и Майк Лоури, детективы отдела по борьбе с незаконным оборотом наркотиков, получают новое задание. Им необходимо обнаружить схему поставок нового наркотика в Майами. Проводя данное расследование, напарники раскрывают искусный заговор, свитый местным наркобароном с целью контролировать всю торговлю наркотиками в городе. Случайно о его планах узнают и другие наркоторговцы Майами. В результате этого в городе вспыхивает настоящая война. Однако Маркесу и Майку удается благополучно справляться с напором наркомафии и засадить дилеров за решетку. Но ситуация выходить из-под контроля, когда Лоури не на шутку увлекается Сидни, сестрой Бэрнетта…

Возраст: 16+ (зрителям, достигшим 16 лет)
Рейтинг MPAA: R (лицам до 17 лет обязательно присутствие взрослого)
Продолжительность: 02:26:44
Качество видео: BDRip
Перевод: Дублированный
Видео: AVC/H.264, 1920x800, ~7 820 kbps
Аудио: AC3, 6 ch, 448 kbps, CBR

MediaInfo

General
Unique ID : 209610541388253593919356997595815022152 (0x9DB18596C6435E25A4C52AC799D50E48)
Complete name : D:\Загрузки\Плохие парни (1995-2003) BDRip [1080p] Дилогия\Плохие парни 2 (2003).mkv
Format : Matroska
Format version : Version 4 / Version 2
File size : 8.37 GiB
Duration : 2 h 26 min
Overall bit rate : 8 162 kb/s
Movie name : Плохие парни 2 (2003)
Encoded date : UTC 2017-01-08 12:07:47
Writing application : mkvmerge v7.9.0 ('Birds') 64bit
Writing library : libebml v1.3.1 + libmatroska v1.4.2
Attachments : poster.jpg
Video
ID : 1
Format : AVC
Format/Info : Advanced Video Codec
Format profile : High@L4.1
Format settings, CABAC : Yes
Format settings, ReFrames : 4 frames
Codec ID : V_MPEG4/ISO/AVC
Duration : 2 h 26 min
Bit rate : 7 820 kb/s
Width : 1 920 pixels
Height : 800 pixels
Display aspect ratio : 2.40:1
Frame rate mode : Constant
Frame rate : 23.976 (24000/1001) FPS
Color space : YUV
Chroma subsampling : 4:2:0
Bit depth : 8 bits
Scan type : Progressive
Bits/(Pixel*Frame) : 0.212
Stream size : 7.90 GiB (94%)
Title : Плохие парни 2 -Alex-
Writing library : x264 core 148 r2744M b97ae06
Encoding settings : cabac=1 / ref=3 / deblock=1:-1:-1 / analyse=0x3:0x113 / me=hex / subme=7 / psy=1 / psy_rd=1.00:0.15 / mixed_ref=1 / me_range=16 / chroma_me=1 / trellis=1 / 8x8dct=1 / cqm=0 / deadzone=6,6 / fast_pskip=1 / chroma_qp_offset=-3 / threads=7 / lookahead_threads=3 / sliced_threads=0 / nr=0 / decimate=0 / interlaced=0 / bluray_compat=0 / constrained_intra=0 / bframes=12 / b_pyramid=2 / b_adapt=2 / b_bias=0 / direct=3 / weightb=1 / open_gop=0 / weightp=2 / keyint=230 / keyint_min=23 / scenecut=40 / intra_refresh=0 / rc_lookahead=40 / rc=abr / mbtree=1 / bitrate=7820 / ratetol=1.0 / qcomp=0.80 / qpmin=0 / qpmax=69 / qpstep=4 / ip_ratio=1.10 / aq=1:0.50
Language : English
Default : Yes
Forced : No
Audio
ID : 2
Format : AC-3
Format/Info : Audio Coding 3
Mode extension : CM (complete main)
Format settings, Endianness : Big
Codec ID : A_AC3
Duration : 2 h 26 min
Bit rate mode : Constant
Bit rate : 448 kb/s
Channel(s) : 6 channels
Channel positions : Front: L C R, Side: L R, LFE
Sampling rate : 48.0 kHz
Frame rate : 31.250 FPS (1536 spf)
Bit depth : 16 bits
Compression mode : Lossy
Delay relative to video : 180 ms
Stream size : 470 MiB (5%)
Title : Дублированный
Language : Russian
Default : Yes
Forced : Yes
Скриншоты:




Показать сообщения:    

Текущее время: 25-Мар 20:41

Часовой пояс: UTC + 11


Вы не можете начинать темы
Вы не можете отвечать на сообщения
Вы не можете редактировать свои сообщения
Вы не можете удалять свои сообщения
Вы не можете голосовать в опросах
Вы не можете прикреплять файлы к сообщениям
Вы не можете скачивать файлы

Сайт не предоставляет электронные версии произведений, а занимается лишь коллекционированием и каталогизацией ссылок, присылаемых и публикуемых на форуме нашими читателями. Если вы являетесь правообладателем какого-либо представленного материала и не желаете, чтобы ссылка на него находилась в нашем каталоге, свяжитесь с нами, и мы незамедлительно удалим ее. Файлы для обмена на трекере предоставлены пользователями сайта, и администрация не несет ответственности за их содержание. Просьба не заливать файлы, защищенные авторскими правами, а также файлы нелегального содержания!