+100


Топ за 24 часа
 
 

[Цитировать]

- Бременские разбойники (2016) WEB-DLRip -Производство: Россия, Украина
Жанр: Мультфильм, комедия, приключения, музыка
Режиссер: Алексей Лукьянчиков
Актеры: Дина Гарипова, Наталья Подольская, Максим Матвеев, Александр Иванов, Владимир Кошевой, Андрей Тартаков, Дмитрий Филимонов, Юлия Яблонская, Игорь Тарадайкин, Анастасия Садовская
Описание:
Среди высохших рек и выжженных лесов раскинулось Королевство, где не поют птицы, не доются коровы, а люди живут в постоянном страхе и нищете. А все потому, что 18 лет назад в результате дворцового переворота к власти пришли хитрые и жадные Министры. Неповиновение новым законам жестоко карается, и никто не осмеливается перечить Королевской охране. Никто, кроме благородного разбойника Трубин Гуда, который грабит Министров и раздаёт награбленное бедным. А помогают ему в этом его верные друзья: кот Зигмунд, пес Баскервиль, петух Петруччо и ослица Гретхен. В то время как жители Королевства слагают о нём легенды, а Министры готовы отдать за его голову любую награду, сам Трубин Гуд мечтает лишь о том, чтобы вернуть Королевство к прежнему процветанию

Дата мировой премьеры: 1 декабря 2016
Дата премьеры в РФ: 10 ноября 2016, «Централ Партнершип»

Продолжительность: 01:12:46
Качество видео: WEB-DLRip
Перевод: Не требуется [iTunes]
Субтитры: Отсутствуют
Видео: MPEG4, XviD, 720x400 (16:9), 25.000 fps, 1 907 Kbps (0.265 bit/pixel)
Аудио 1: AC-3, 48.0 KHz, 6 ch, 384 Kbps, CBR
Аудио 2: AC-3, 48.0 KHz, 6 ch, 384 Kbps, CBR

MediaInfo

Общее
Полное имя                               : D:\[1]\Бременские разбойники\Бременские разбойники (2016)_WEB-DLRip.1400Mb.avi
Формат                                   : AVI
Формат/Информация                        : Audio Video Interleave
Размер файла                             : 1,37 Гбайт
Продолжительность                        : 1 ч. 12 м.
Общий поток                              : 2689 Кбит/сек
Программа кодирования                    : VirtualDubMod 1.5.10.2 (build 2540/release)
Библиотека кодирования                   : VirtualDubMod build 2540/release
Видео
Идентификатор                            : 0
Формат                                   : MPEG-4 Visual
Профиль формата                          : Advanced Simple@L5
Параметр BVOP формата                    : 2
Параметр QPel формата                    : Нет
Параметр GMC формата                     : Без точки перехода
Параметр матрицы формата                 : Default (MPEG)
Идентификатор кодека                     : XVID
Идентификатор кодека/Подсказка           : XviD
Продолжительность                        : 1 ч. 12 м.
Битрейт                                  : 1907 Кбит/сек
Ширина                                   : 720 пикселей
Высота                                   : 400 пикселей
Соотношение сторон                       : 16:9
Частота кадров                           : 25,000 кадров/сек
Цветовое пространство                    : YUV
Субдискретизация насыщенности            : 4:2:0
Битовая глубина                          : 8 бит
Тип развёртки                            : Прогрессивная
Метод сжатия                             : С потерями
Бит/(Пиксели*Кадры)                      : 0.265
Размер потока                            : 992 Мбайт (71%)
Библиотека кодирования                   : XviD 1.2.1 (UTC 2008-12-04)
Аудио #1
Идентификатор                            : 1
Формат                                   : AC-3
Формат/Информация                        : Audio Coding 3
Расширение режима                        : CM (complete main)
Параметр Endianness формата              : Big
Идентификатор кодека                     : 2000
Продолжительность                        : 1 ч. 12 м.
Вид битрейта                             : Постоянный
Битрейт                                  : 384 Кбит/сек
Каналы                                   : 6 каналов
Расположение каналов                     : Front: L C R, Side: L R, LFE
Частота                                  : 48,0 КГц
Битовая глубина                          : 16 бит
Метод сжатия                             : С потерями
Размер потока                            : 200 Мбайт (14%)
Выравнивание                             : Разделение по промежуткам
Продолжительность промежутка             : 40  мс. (1,00 видеокадр)
Время предзагрузки промежутка            : 500  мс.
Аудио #2
Идентификатор                            : 2
Формат                                   : AC-3
Формат/Информация                        : Audio Coding 3
Расширение режима                        : CM (complete main)
Параметр Endianness формата              : Big
Идентификатор кодека                     : 2000
Продолжительность                        : 1 ч. 12 м.
Вид битрейта                             : Постоянный
Битрейт                                  : 384 Кбит/сек
Каналы                                   : 6 каналов
Расположение каналов                     : Front: L C R, Side: L R, LFE
Частота                                  : 48,0 КГц
Битовая глубина                          : 16 бит
Метод сжатия                             : С потерями
Размер потока                            : 200 Мбайт (14%)
Выравнивание                             : Разделение по промежуткам
Продолжительность промежутка             : 40  мс. (1,00 видеокадр)
Время предзагрузки промежутка            : 500  мс.
Скриншоты:




Показать сообщения:    

Текущее время: 17-Янв 22:06

Часовой пояс: UTC + 11


Вы не можете начинать темы
Вы не можете отвечать на сообщения
Вы не можете редактировать свои сообщения
Вы не можете удалять свои сообщения
Вы не можете голосовать в опросах
Вы не можете прикреплять файлы к сообщениям
Вы не можете скачивать файлы

Сайт не предоставляет электронные версии произведений, а занимается лишь коллекционированием и каталогизацией ссылок, присылаемых и публикуемых на форуме нашими читателями. Если вы являетесь правообладателем какого-либо представленного материала и не желаете, чтобы ссылка на него находилась в нашем каталоге, свяжитесь с нами, и мы незамедлительно удалим ее. Файлы для обмена на трекере предоставлены пользователями сайта, и администрация не несет ответственности за их содержание. Просьба не заливать файлы, защищенные авторскими правами, а также файлы нелегального содержания!