+100


Топ за 24 часа
 
 

[Цитировать]

- Полный расколбас / Sausage Party (2016) BDRip [H.265/2160p] [4K] -Производство: США | Columbia Pictures, Annapurna Pictures, Nitrogen Studios Canada, Point Grey Pictures
Жанр: Комедия, Приключения
Режиссер: Грег Тирнан, Конрад Вернон
Описание:
Первая анимационная комедия для взрослых о невероятных приключениях еды из супермаркета. Съедобным друзьям предстоит получить ответ на главный вопрос: есть ли жизнь за стенами супермаркета и что же происходит с продуктами после того, как они попадают к людям домой..?

Возраст: 18+ (зрителям, достигшим 18 лет. запрещено для детей)
Рейтинг MPAA: R (лицам до 17 лет обязательно присутствие взрослого)
Продолжительность: 01:29:13
Качество видео: BDRip
Перевод: Дублированный
Видео: HEVC/H.265, 3840х2160, ~60,7 Мбит/сек
Аудио: AC3, 6 ch, 640 Кбит/сек, CBR - Русский

MediaInfo

Общее
Уникальный идентификатор : 185387606552281852929882046799600935593 (0x8B785AB1F20830AAB23C38BAECDFE2A9)
Полное имя : F:\Видео\ ПОЛНЫЙ РАСКОЛБАС (2016) 2160p 4K UltraHD ).mkv
Формат : Matroska
Версия формата : Version 4 / Version 2
Размер файла : 38,1 Гбайт
Продолжительность : 1 ч. 29 м.
Общий поток : 61,1 Мбит/сек
Дата кодирования : UTC 2017-01-09 08:01:08 / UTC 2016-11-12T17:48:51Z
Программа кодирования : mkvmerge v9.6.0 ('Slave To Your Mind') 64bit
Библиотека кодирования : libebml v1.3.4 + libmatroska v1.4.5 / Lavf56.1.0
Видео
Идентификатор : 1
Формат : HEVC
Формат/Информация : High Efficiency Video Coding
Профиль формата : Main 10@L6.1@Main
Идентификатор кодека : V_MPEGH/ISO/HEVC
Продолжительность : 1 ч. 29 м.
Битрейт : 59,2 Мбит/сек
Ширина : 3840 пикселей
Высота : 2160 пикселей
Соотношение сторон : 16:9
Режим частоты кадров : Постоянный
Частота кадров : 23,976 (24000/1001) кадра/сек
Цветовое пространство : YUV
Субдискретизация насыщенности : 4:2:0
Битовая глубина : 10 бит
Бит/(Пиксели*Кадры) : 0.298
Размер потока : 36,9 Гбайт (97%)
Библиотека кодирования : x265 1.9+3-63308f7658c3:[Windows][GCC 5.2.0][64 bit] 10bit
Настройки программы : wpp / ctu=64 / min-cu-size=8 / max-tu-size=32 / tu-intra-depth=1 / tu-inter-depth=1 / me=1 / subme=2 / merange=57 / no-rect / no-amp / max-merge=2 / temporal-mvp / no-early-skip / rdpenalty=0 / no-tskip / no-tskip-fast / strong-intra-smoothing / no-lossless / no-cu-lossless / no-constrained-intra / no-fast-intra / open-gop / no-temporal-layers / interlace=0 / keyint=240 / min-keyint=24 / scenecut=40 / rc-lookahead=20 / lookahead-slices=8 / bframes=4 / bframe-bias=0 / b-adapt=2 / ref=3 / limit-refs=3 / no-limit-modes / weightp / no-weightb / aq-mode=1 / qg-size=32 / aq-strength=1.00 / cbqpoffs=0 / crqpoffs=0 / rd=3 / psy-rd=2.00 / rdoq-level=0 / psy-rdoq=0.00 / signhide / deblock / sao / no-sao-non-deblock / b-pyramid / cutree / no-intra-refresh / rc=abr / bitrate=61000 / qcomp=0.60 / qpmin=0 / qpmax=51 / qpstep=4 / ipratio=1.40 / pbratio=1.30
Default : Да
Forced : Нет
Цветовой диапазон : Limited
Основные цвета : BT.709
Характеристики трансфера : BT.709
Коэффициенты матрицы : BT.601
Statistics Tags Issue : mkvmerge v9.6.0 ('Slave To Your Mind') 64bit 2017-01-09 08:01:08 / mkvmerge v9.6.0 ('Slave To Your Mind') 64bit 2017-01-09 08:01:08 / UTC 2016-11-12T17:48:51Z
FromStats_BitRate : 60414555
FromStats_Duration : 01:29:13.807000000
FromStats_FrameCount : 128363
FromStats_StreamSize : 40430983916
Аудио
Идентификатор : 2
Формат : AC-3
Формат/Информация : Audio Coding 3
Расширение режима : CM (complete main)
Параметр Endianness формата : Big
Идентификатор кодека : A_AC3
Продолжительность : 1 ч. 29 м.
Вид битрейта : Постоянный
Битрейт : 640 Кбит/сек
Каналы : 6 каналов
Расположение каналов : Front: L C R, Side: L R, LFE
Частота : 48,0 КГц
Частота кадров : 31,250 кадров/сек (1536 spf)
Метод сжатия : С потерями
Задержка видео : 28 с. 445 мс.
Размер потока : 408 Мбайт (1%)
Заголовок : DUB (Blu-ray CEE / WDSSPR)
Язык : Russian
Default : Да
Forced : Нет
Statistics Tags Issue : mkvmerge v9.6.0 ('Slave To Your Mind') 64bit 2017-01-09 08:01:08 / mkvmerge v9.6.0 ('Slave To Your Mind') 64bit 2017-01-09 08:01:08 / UTC 2016-11-12T17:48:51Z
FromStats_BitRate : 640000
FromStats_Duration : 01:28:45.344000000
FromStats_FrameCount : 166417
FromStats_StreamSize : 426027520
Скриншоты:




Показать сообщения:    

Текущее время: 17-Янв 22:06

Часовой пояс: UTC + 11


Вы не можете начинать темы
Вы не можете отвечать на сообщения
Вы не можете редактировать свои сообщения
Вы не можете удалять свои сообщения
Вы не можете голосовать в опросах
Вы не можете прикреплять файлы к сообщениям
Вы не можете скачивать файлы

Сайт не предоставляет электронные версии произведений, а занимается лишь коллекционированием и каталогизацией ссылок, присылаемых и публикуемых на форуме нашими читателями. Если вы являетесь правообладателем какого-либо представленного материала и не желаете, чтобы ссылка на него находилась в нашем каталоге, свяжитесь с нами, и мы незамедлительно удалим ее. Файлы для обмена на трекере предоставлены пользователями сайта, и администрация не несет ответственности за их содержание. Просьба не заливать файлы, защищенные авторскими правами, а также файлы нелегального содержания!