+100


Топ за 24 часа
 
 

[Цитировать]

- Арсенал / Arsenal (2017) WEB-DLRip -Производство: США | Highland Film Group (HFG), Highland Film Group (HFG), Ingenious Media
Жанр: Триллер
Режиссер: Стивен С. Миллер
Продюсер: Джордж Фурла, Энтони Дж. Калли, Эйлин Филдс
Актеры: Николас Кейдж, Джон Кьюсак, Эдриан Гренье, Джонатон Шек, Лидия Халл, Хезер Йохансен, Марк МакКалло, Эбби Гэйл, Кристофер Коппола
Описание:
У каждого свой жизненный путь. Идти по нему или нет — каждый выбирает сам. Если вмешается злодейка-судьба, то предначертанное должно свершиться. Два брата — дети одной матери — одинаковые по крови и такие разные по жизни. Как многие подростки, они выросли на улице, впитывая в себя плохое и хорошее уличного бытия. Время скоротечно и дороги братьев расходятся на многие годы. Один из них вырывается из бедности и занимается строительным бизнесом. Он богатый, уважаемый деловой человек. Судьба второго брата совсем иная. Занимая не высокое положение в криминальном мире, он и его дочь становятся заложниками влиятельного авторитета. Только выкуп может вернуть свободу. Теперь их жизнь из зависит от брата. Но между ними долгие годы разлуки. Оба изменились и находились по разные стороны закона. Как поступит богатый брат?

Рейтинг MPAA: R (лицам до 17 лет обязательно присутствие взрослого)
Дата мировой премьеры: 6 января 2017
Продолжительность: 01:32:13
Качество видео: WEB-DLRip
Перевод: Многоголосый закадровый, любительский
Озвучка / Автор перевода: MUZOBOZ
Реклама: Без рекламы
Видео: XviD, 720x304 (2.35:1), 23.976 fps, 1891 Kbps (0.360 bit/pixel)
Аудио: AC-3, 48.0 KHz, 2 ch, 224 Kbps, CBR

MediaInfo

Complete name :\Arsenal.2017.WEB-DL.avi
Format : AVI
Format/Info : Audio Video Interleave
File size : 1.37 GiB
Duration : 1h 32mn
Overall bit rate : 2 124 Kbps
Writing application : VirtualDubMod 1.5.10.3 | (build 2550/release)
Writing library : VirtualDubMod build 2550/release
Video
ID : 0
Format : MPEG-4 Visual
Format profile : Advanced Simple@L5
Format settings, BVOP : 1
Format settings, QPel : No
Format settings, GMC : No warppoints
Format settings, Matrix : Custom
Codec ID : XVID
Codec ID/Hint : XviD
Duration : 1h 32mn
Bit rate : 1 891 Kbps
Width : 720 pixels
Height : 304 pixels
Display aspect ratio : 2.35:1
Frame rate : 23.976 fps
Color space : YUV
Chroma subsampling : 4:2:0
Bit depth : 8 bits
Scan type : Progressive
Compression mode : Lossy
Bits/(Pixel*Frame) : 0.360
Stream size : 1.22 GiB (89%)
Writing library : XviD 1.2.1 (UTC 2008-12-04)
Audio
ID : 1
Format : AC-3
Format/Info : Audio Coding 3
Mode extension : CM (complete main)
Format settings, Endianness : Big
Codec ID : 2000
Duration : 1h 32mn
Bit rate mode : Constant
Bit rate : 224 Kbps
Channel(s) : 2 channels
Channel positions : Front: L R
Sampling rate : 48.0 KHz
Compression mode : Lossy
Stream size : 148 MiB (11%)
Alignment : Split accross interleaves
Interleave, duration : 42 ms (1.00 video frame)
Interleave, preload duratio : 500 ms
Скриншоты:




Показать сообщения:    

Текущее время: 25-Июл 13:45

Часовой пояс: UTC + 11


Вы не можете начинать темы
Вы не можете отвечать на сообщения
Вы не можете редактировать свои сообщения
Вы не можете удалять свои сообщения
Вы не можете голосовать в опросах
Вы не можете прикреплять файлы к сообщениям
Вы не можете скачивать файлы

Сайт не предоставляет электронные версии произведений, а занимается лишь коллекционированием и каталогизацией ссылок, присылаемых и публикуемых на форуме нашими читателями. Если вы являетесь правообладателем какого-либо представленного материала и не желаете, чтобы ссылка на него находилась в нашем каталоге, свяжитесь с нами, и мы незамедлительно удалим ее. Файлы для обмена на трекере предоставлены пользователями сайта, и администрация не несет ответственности за их содержание. Просьба не заливать файлы, защищенные авторскими правами, а также файлы нелегального содержания!