+100


Топ за 24 часа
 
 

[Цитировать]

- Тони Эрдманн / Toni Erdmann (2016) BDRip [H.264/1080p]
-Производство: Германия, Австрия - ARTE LLC, Coop99 Filmproduktion, HiFilm
Жанр: Драма, мелодрама
Режиссер: Марен Аде
Актеры: Сандра Хюллер, Петер Симонишек, Михаэль Виттенборн, Томас Лойбл, Тристан Пюттер, Ингрид Бису, Хадевих Минис, Люси Расселл, Виктория Кочас, Александру Пападопол
Описание:
Бывший учитель музыки, весельчак и выдумщик Винфред, решает наладить отношения с дочерью, успешным бизнес-консультантом одной из престижных корпораций. Чтобы завладеть ее вниманием, он выдает себя за эксцентричного бизнесмена Тони Эрдманна. Своими уморительными и шокирующими выходками он надеется изменить ее представление о жизни и завоевать место в ее сердце.

Рейтинг MPAA: R (лицам до 17 лет обязательно присутствие взрослого)
Дата мировой премьеры: 14 мая 2016
Дата российской премьеры: 23 февраля 2017, «Русский Репортаж»
Продолжительность: 02:42:35
Качество видео: BDRip 1080p (Сцен-рип)
Перевод: Любительский многоголосый - @MUZOBOZ@
Субтитры: Отсутствуют
Реклама: Присутствуют аудио и текстовые вставки рекламы
Видео: H264, 1920x1040, 24 fps, 10.1 Мbps,
Аудио : AC3 5.1, 640 kbps, 48 kHz

MediaInfo

General
Unique ID                                : 237275359942928752775822069429165140582 (0xB2819273B313EE70B0AF917B17D4AA66)
Complete name                            : D:\Torrent Video\Toni.Erdmann.2016.BDRip.1080p.mkv
Format                                   : Matroska
Format version                           : Version 2
File size                                : 12.2 GiB
Duration                                 : 2 h 42 min
Overall bit rate mode                    : Variable
Overall bit rate                         : 10.8 Mb/s
Encoded date                             : UTC 2017-01-07 20:55:26
Writing application                      : mkvmerge v8.3.0 ('Over the Horizon') 64bit
Writing library                          : libebml v1.3.1 + libmatroska v1.4.2
Video
ID                                       : 1
Format                                   : AVC
Format/Info                              : Advanced Video Codec
Format profile                           : [url=mailto:High@L4.1]High@L4.1[/url]
Format settings, CABAC                   : Yes
Format settings, ReFrames                : 4 frames
Codec ID                                 : V_MPEG4/ISO/AVC
Duration                                 : 2 h 42 min
Bit rate mode                            : Variable
Bit rate                                 : 10.1 Mb/s
Maximum bit rate                         : 11.0 Mb/s
Width                                    : 1 920 pixels
Height                                   : 1 040 pixels
Display aspect ratio                     : 1.85:1
Frame rate mode                          : Constant
Frame rate                               : 24.000 FPS
Standard                                 : Component
Color space                              : YUV
Chroma subsampling                       : 4:2:0
Bit depth                                : 8 bits
Scan type                                : Progressive
Bits/(Pixel*Frame)                       : 0.211
Stream size                              : 11.5 GiB (94%)
Default                                  : Yes
Forced                                   : No
Color range                              : Limited
Color primaries                          : BT.709
Transfer characteristics                 : BT.709
Matrix coefficients                      : BT.709
Audio
ID                                       : 2
Format                                   : AC-3
Format/Info                              : Audio Coding 3
Mode extension                           : CM (complete main)
Format settings, Endianness              : Big
Codec ID                                 : A_AC3
Duration                                 : 2 h 42 min
Bit rate mode                            : Constant
Bit rate                                 : 640 kb/s
Channel(s)                               : 6 channels
Channel positions                        : Front: L C R, Side: L R, LFE
Sampling rate                            : 48.0 kHz
Frame rate                               : 31.250 FPS (1536 spf)
Bit depth                                : 16 bits
Compression mode                         : Lossy
Stream size                              : 744 MiB (6%)
Default                                  : Yes
Forced                                   : No
Скриншоты:




Показать сообщения:    

Текущее время: 19-Окт 00:08

Часовой пояс: UTC + 11


Вы не можете начинать темы
Вы не можете отвечать на сообщения
Вы не можете редактировать свои сообщения
Вы не можете удалять свои сообщения
Вы не можете голосовать в опросах
Вы не можете прикреплять файлы к сообщениям
Вы не можете скачивать файлы

Сайт не предоставляет электронные версии произведений, а занимается лишь коллекционированием и каталогизацией ссылок, присылаемых и публикуемых на форуме нашими читателями. Если вы являетесь правообладателем какого-либо представленного материала и не желаете, чтобы ссылка на него находилась в нашем каталоге, свяжитесь с нами, и мы незамедлительно удалим ее. Файлы для обмена на трекере предоставлены пользователями сайта, и администрация не несет ответственности за их содержание. Просьба не заливать файлы, защищенные авторскими правами, а также файлы нелегального содержания!