+100


Топ за 24 часа
 
 

[Цитировать]

- Смертельная Гонка 2050 / Death Race 2050 (2017) BDRip [H.264/1080p]-Производство: США, New Horizons Picture, Universal 1440 Entertainment
Жанр: Фантастика, Комедия, Боевик
Режиссер: Гилберт Джон
Продюсер: Роджер Корман, Джули Корман
Актеры: Ману Беннетт, Малкольм МакДауэлл, Марсия Миллер, Берт Гринстед, Фолаке Оловофойеку, Энесса Ремси, Янси Батлер, Чарли Фаррелл, Шэнна Олсон
Описание:
"Смертельная гонка" - ежегодное национальное шоу Америки, активно рекламируемое президентом. Несколько экипажей, состоящих из водителя и штурмана, должны не только как можно быстрее пересечь США, но и набрать как можно больше очков. Очки же даются за сбитых пешеходов: 10 очков за взрослого, 20 за ребенка и 50 за престарелых граждан.

Рейтинг MPAA: R (лицам до 17 лет обязательно присутствие взрослого)
Продолжительность: 01:33:03
Качество видео: BDRip
Перевод: Многоголосый закадровый, любительский
Озвучка / Автор перевода: @MUZOBOZ@
Язык субтитров: Отсутствует
Реклама: Присутствуют аудио и видео вставки рекламы
Видео: MPEG-4 AVC, 1920x1080, 10.1 Мбит/с
Аудио: Русский AC3, 2 ch, 640 Кбит/с

MediaInfo

General
Complete name : O:\Death.Race.2050.2017.P.BDRip.1080p.mkv
Format : Matroska
File size : 7.09 GiB
Duration : 1h 33mn
Overall bit rate : 10.9 Mbps
Encoded date : UTC 2017-01-08 15:24:58
Writing application : mkvmerge v8.3.0 ('Over the Horizon') 64bit
Writing library : libebml v1.3.1 + libmatroska v1.4.2
Video
ID : 1
Format : AVC
Format/Info : Advanced Video Codec
Format profile : High@L4.1
Format settings, CABAC : Yes
Format settings, ReFrames : 4 frames
Muxing mode : Container profile=Unknown@4.1
Codec ID : V_MPEG4/ISO/AVC
Duration : 1h 32mn
Bit rate : 10.1 Mbps
Width : 1 920 pixels
Height : 1 080 pixels
Display aspect ratio : 16:9
Frame rate : 23.976 fps
Standard : Component
Resolution : 8 bits
Colorimetry : 4:2:0
Scan type : Progressive
Bits/(Pixel*Frame) : 0.202
Stream size : 6.53 GiB (92%)
Color primaries : BT.709-5, BT.1361, IEC 61966-2-4, SMPTE RP177
Transfer characteristics : BT.709-5, BT.1361
Matrix coefficients : BT.709-5, BT.1361, IEC 61966-2-4 709, SMPTE RP177
Audio
ID : 2
Format : AC-3
Format/Info : Audio Coding 3
Codec ID : A_AC3
Duration : 1h 33mn
Bit rate mode : Constant
Bit rate : 640 Kbps
Channel(s) : 2 channels
Channel positions : L R
Sampling rate : 48.0 KHz
Stream size : 426 MiB (6%)
Скриншоты:




Показать сообщения:    

Текущее время: 22-Окт 19:26

Часовой пояс: UTC + 11


Вы не можете начинать темы
Вы не можете отвечать на сообщения
Вы не можете редактировать свои сообщения
Вы не можете удалять свои сообщения
Вы не можете голосовать в опросах
Вы не можете прикреплять файлы к сообщениям
Вы не можете скачивать файлы

Сайт не предоставляет электронные версии произведений, а занимается лишь коллекционированием и каталогизацией ссылок, присылаемых и публикуемых на форуме нашими читателями. Если вы являетесь правообладателем какого-либо представленного материала и не желаете, чтобы ссылка на него находилась в нашем каталоге, свяжитесь с нами, и мы незамедлительно удалим ее. Файлы для обмена на трекере предоставлены пользователями сайта, и администрация не несет ответственности за их содержание. Просьба не заливать файлы, защищенные авторскими правами, а также файлы нелегального содержания!