+100


 

[Цитировать]

- Роза Хутор. Рождество 2017 (2017.01.07) SATRip -Телекомпания: Первый канал
Жанр: Концерт
Описание:
В светлый праздник Рождества на сцену концертного зала «Роза Холл» выйдут самые любимые, самые популярные российские артисты, чьи имена и песни в буквальном смысле слова «гремят» на всю страну. Встреча с каждым из них по отдельности — уже сама по себе настоящий праздник для сотен тысяч их поклонников, что же говорить о возможности увидеть их на сцене всех вместе! Только на фестивале «Рождество на Роза Хутор» на одной сцене можно увидеть Тимати и Егора Крида, Ани Лорак, Интарса Бусулиса и Полину Гагарину, Лайму Вайкуле и Славу, Наташу Королеву и Светлану Лобода, Аниту Цой, Александра Панайотова, MBand, Soprano, Нюшу и Emin’а, и, конечно, самого Григория Лепса! Кроме того, в праздничном гала-концерте, помимо именитых артистов, примут участие молодые музыканты, чей творческий путь только начинается, — артисты Продюсерского центра Григория Лепса Шариф, Нико Неман, Алина Гросу, Николай Тимохин, Татьяна Ширко, Данил Буранов и Ромади.
Релиз от: Хотт@быч
Продолжительность: 01:58:52
Качество видео: SATRip
Субтитры: Отсутствуют
Видео: MPEG4, XviD, 720x400 (16:9), 25.000 fps, 1 797 Kbps (0.250 bit/pixel)
Аудио: AC-3, 48.0 KHz, 2 ch, 192 Kbps, CBR

MediaInfo

Общее
Полное имя                               : D:\[1]\Концерт\Роза Хутор. Рождество 2017 (2017.01.07).avi
Формат                                   : AVI
Формат/Информация                        : Audio Video Interleave
Размер файла                             : 1,66 Гбайт
Продолжительность                        : 1 ч. 58 м.
Общий поток                              : 1999 Кбит/сек
Программа кодирования                    : VirtualDubMod 1.5.10.3 | [url=http://www.virtualdub-fr.org]www.virtualdub-fr.org[/url] || (build 2550/release)
Библиотека кодирования                   : VirtualDub build 29808/release
Видео
Идентификатор                            : 0
Формат                                   : MPEG-4 Visual
Профиль формата                          : Advanced Simple@L5
Параметр BVOP формата                    : 2
Параметр QPel формата                    : Нет
Параметр GMC формата                     : Без точки перехода
Параметр матрицы формата                 : Default (H.263)
Идентификатор кодека                     : XVID
Идентификатор кодека/Подсказка           : XviD
Продолжительность                        : 1 ч. 58 м.
Битрейт                                  : 1797 Кбит/сек
Ширина                                   : 720 пикселей
Высота                                   : 400 пикселей
Соотношение сторон                       : 16:9
Частота кадров                           : 25,000 кадров/сек
Цветовое пространство                    : YUV
Субдискретизация насыщенности            : 4:2:0
Битовая глубина                          : 8 бит
Тип развёртки                            : Прогрессивная
Метод сжатия                             : С потерями
Бит/(Пиксели*Кадры)                      : 0.250
Размер потока                            : 1,49 Гбайт (90%)
Библиотека кодирования                   : XviD 1.2.1 (UTC 2008-12-04)
Аудио
Идентификатор                            : 1
Формат                                   : AC-3
Формат/Информация                        : Audio Coding 3
Расширение режима                        : CM (complete main)
Параметр Endianness формата              : Big
Идентификатор кодека                     : 2000
Продолжительность                        : 1 ч. 58 м.
Вид битрейта                             : Постоянный
Битрейт                                  : 192 Кбит/сек
Каналы                                   : 2 канала
Расположение каналов                     : Front: L R
Частота                                  : 48,0 КГц
Битовая глубина                          : 16 бит
Метод сжатия                             : С потерями
Размер потока                            : 163 Мбайт (10%)
Выравнивание                             : Разделение по промежуткам
Продолжительность промежутка             : 40  мс. (1,00 видеокадр)
Время предзагрузки промежутка            : 500  мс.
Скриншоты:




Показать сообщения:    

Текущее время: 23-Июн 07:37

Часовой пояс: UTC + 11


Вы не можете начинать темы
Вы не можете отвечать на сообщения
Вы не можете редактировать свои сообщения
Вы не можете удалять свои сообщения
Вы не можете голосовать в опросах
Вы не можете прикреплять файлы к сообщениям
Вы не можете скачивать файлы

Сайт не предоставляет электронные версии произведений, а занимается лишь коллекционированием и каталогизацией ссылок, присылаемых и публикуемых на форуме нашими читателями. Если вы являетесь правообладателем какого-либо представленного материала и не желаете, чтобы ссылка на него находилась в нашем каталоге, свяжитесь с нами, и мы незамедлительно удалим ее. Файлы для обмена на трекере предоставлены пользователями сайта, и администрация не несет ответственности за их содержание. Просьба не заливать файлы, защищенные авторскими правами, а также файлы нелегального содержания!