+100


 

[Цитировать]

- Тиана: 10000 лет спустя / Yi wan nian yi hou (Teana: 10000 Years Later) (2015) WEBRip -Производство: Китай, Yili Animation Studio
Жанр: Компьютерная анимация
Режиссер: Ли Ю
Персонажи: Жома, Чонг Ван, Йалайям
Описание:
Тибет 10 000 лет после апокалипсиса, цивилизация отброшена на тысячи лет назад. Магия и технология тщательно прячутся богами от глаз людей, чтоб не дай бог, катастрофа не повторилась снова. Но темным силам неймется, они хотят снова дать людям власть над магией и технологиями, чтоб те возродились из пепла и перестали поклоняться богам, которые спрятали знания. И только одна девочка с собакой, была предназначена для спасения мира на земле и дать людям дальше продолжать влачить жалкое существование в пыли без знаний, которые потеряли.

Продолжительность: 01:36:55
Качество видео: WEBRip
Перевод: Одноголосый закадровый, любительский
Озвучка / Автор перевода: Хихикающий доктор
Язык субтитров: Китайский, английский
Вид субтитров: Вшитые неотключаемые (хардсаб)
Видео: AVC/H.264, 1920х1072, ~2984 Kbps
Аудио: MP3, 2 ch, 192 Kbps, CBR

MediaInfo

Общее
Уникальный идентификатор : 233256566619138700781746399684235076182 (0xAF7B94A4ABB3421396B5A88892DFA256)
Полное имя : E:\MMMM\10000 Years Later 2015.Xixidok.mkv
Формат : Matroska
Версия формата : Version 4 / Version 2
Размер файла : 2,15 Гбайт
Продолжительность : 1 ч. 36 м.
Общий поток : 3178 Кбит/сек
Дата кодирования : UTC 2016-12-30 14:46:03
Программа кодирования : mkvmerge v8.3.0 ('Over the Horizon') 64bit
Библиотека кодирования : libebml v1.3.1 + libmatroska v1.4.2
Видео
Идентификатор : 1
Формат : AVC
Формат/Информация : Advanced Video Codec
Профиль формата : High@L4
Параметр CABAC формата : Да
Параметр ReFrames формата : 4 кадра
Идентификатор кодека : V_MPEG4/ISO/AVC
Продолжительность : 1 ч. 36 м.
Битрейт : 2984 Кбит/сек
Ширина : 1920 пикселей
Высота : 1072 пикселя
Соотношение сторон : 16:9
Режим частоты кадров : Постоянный
Частота кадров : 25,000 кадров/сек
Цветовое пространство : YUV
Субдискретизация насыщенности : 4:2:0
Битовая глубина : 8 бит
Тип развёртки : Прогрессивная
Бит/(Пиксели*Кадры) : 0.058
Размер потока : 2,02 Гбайт (94%)
Библиотека кодирования : Provided by x264 :: H.264/MPEG-4 AVC codec -V 1.6.07
Default : Да
Forced : Нет
Цветовой диапазон : Limited
Основные цвета : BT.709
Характеристики трансфера : BT.709
Коэффициенты матрицы : BT.709
Аудио
Идентификатор : 2
Формат : MPEG Audio
Версия формата : Version 1
Профиль формата : Layer 3
Идентификатор кодека : A_MPEG/L3
Идентификатор кодека/Подсказка : MP3
Продолжительность : 1 ч. 36 м.
Вид битрейта : Постоянный
Битрейт : 192 Кбит/сек
Каналы : 2 канала
Частота : 44,1 КГц
Частота кадров : 38,281 кадров/сек (1152 spf)
Метод сжатия : С потерями
Размер потока : 133 Мбайт (6%)
Default : Да
Forced : Нет
Скриншоты:




Показать сообщения:    

Текущее время: 15-Дек 21:10

Часовой пояс: UTC + 11


Вы не можете начинать темы
Вы не можете отвечать на сообщения
Вы не можете редактировать свои сообщения
Вы не можете удалять свои сообщения
Вы не можете голосовать в опросах
Вы не можете прикреплять файлы к сообщениям
Вы не можете скачивать файлы

Сайт не предоставляет электронные версии произведений, а занимается лишь коллекционированием и каталогизацией ссылок, присылаемых и публикуемых на форуме нашими читателями. Если вы являетесь правообладателем какого-либо представленного материала и не желаете, чтобы ссылка на него находилась в нашем каталоге, свяжитесь с нами, и мы незамедлительно удалим ее. Файлы для обмена на трекере предоставлены пользователями сайта, и администрация не несет ответственности за их содержание. Просьба не заливать файлы, защищенные авторскими правами, а также файлы нелегального содержания!