+100


Топ за 24 часа
 
 

[Цитировать]

- Подводная братва / Shark Tale (2004) WEB-DL -Производство: США
Жанр: Приключения, Комедия
Режиссер: Бибо Бержерон, Вики Дженсон, Роб Леттерман
Персонажи: Уилл Смит, Роберт Де Ниро, Рене Зеллвегер, Джек Блэк, Анджелина Джоли, Мартин Скорсезе, Зигги Марли, Даг Э. Даг, Майкл Империоли, Винсент Пасторе
Описание:
Весь подводный мир встревожен убийством сына главы главной преступной группировки акул и, надо же, на месте преступления находят ничего не подозревающего малька Оскара! Всю жизнь Оскар мечтал быть сильным и знаменитым, и вот ему представился прекрасный случай воспользоваться чужой славой. Но очень скоро Оскар понимает, что он натворил, взяв титул «Гроза Акул»...

Возраст: 12+ (зрителям, достигшим 12 лет)
Рейтинг MPAA: PG (рекомендуется присутствие родителей)
Дата мировой премьеры: 10.09.2004
Дата российской премьеры: 22.10.2004
Дата выхода DVD/Blu-ray релиза: 28.04.2011
Продолжительность: 01:29:41
Качество видео: WEB-DL
Перевод: Дублированный
Язык субтитров: русские (форсированные), английские (полные)
Видео: AVC/H.264, 1920х1080, ~8055 kbps
Аудио #1: AC3, 6 ch, 448 kbps, CBR - русский
Аудио #2: AC3, 6 ch, 640 kbps, CBR - английский

MediaInfo

Format : Matroska
Format version : Version 4 / Version 2
File size : 5.85 GiB
Duration : 1h 29mn
Overall bit rate mode : Variable
Overall bit rate : 9 329 Kbps
Movie name : SHRK_TL_2004_1080p_WEBRip -BLUEBIRD
Encoded date : UTC 2017-01-04 15:04:01
Writing application : mkvmerge v8.3.0 ('Over the Horizon') 64bit
Writing library : libebml v1.3.1 + libmatroska v1.4.2
Video
ID : 1
Format : AVC
Format/Info : Advanced Video Codec
Format profile : High@L4.0
Format settings, CABAC : Yes
Format settings, ReFrames : 4 frames
Codec ID : V_MPEG4/ISO/AVC
Duration : 1h 29mn
Bit rate mode : Variable
Bit rate : 8 055 Kbps
Maximum bit rate : 15.0 Mbps
Width : 1 920 pixels
Height : 1 080 pixels
Display aspect ratio : 16:9
Frame rate mode : Constant
Frame rate : 23.976 fps
Color space : YUV
Chroma subsampling : 4:2:0
Bit depth : 8 bits
Scan type : Progressive
Bits/(Pixel*Frame) : 0.162
Stream size : 5.05 GiB (86%)
Writing library : x264 core 148 r2623 d5b2374
Encoding settings : cabac=1 / ref=4 / deblock=1:-1:-1 / analyse=0x3:0x133 / me=umh / subme=9 / psy=1 / psy_rd=1.00:0.15 / mixed_ref=1 / me_range=24 / chroma_me=1 / trellis=2 / 8x8dct=1 / cqm=0 / deadzone=21,11 / fast_pskip=1 / chroma_qp_offset=-3 / threads=34 / lookahead_threads=5 / sliced_threads=0 / nr=150 / decimate=1 / interlaced=0 / bluray_compat=0 / constrained_intra=0 / bframes=8 / b_pyramid=2 / b_adapt=2 / b_bias=0 / direct=3 / weightb=1 / open_gop=0 / weightp=2 / keyint=120 / keyint_min=61 / scenecut=0 / intra_refresh=0 / rc_lookahead=120 / rc=crf / mbtree=1 / crf=18.0 / qcomp=0.60 / qpmin=0 / qpmax=69 / qpstep=4 / vbv_maxrate=15000 / vbv_bufsize=31250 / crf_max=0.0 / nal_hrd=vbr / filler=0 / ip_ratio=1.40 / aq=3:1.00
Language : English
Default : Yes
Forced : No
Color primaries : BT.709
Transfer characteristics : BT.709
Matrix coefficients : BT.709
Audio #1
ID : 2
Format : AC-3
Format/Info : Audio Coding 3
Mode extension : CM (complete main)
Format settings, Endianness : Big
Codec ID : A_AC3
Duration : 1h 29mn
Bit rate mode : Constant
Bit rate : 448 Kbps
Channel(s) : 6 channels
Channel positions : Front: L C R, Side: L R, LFE
Sampling rate : 48.0 KHz
Bit depth : 16 bits
Compression mode : Lossy
Stream size : 288 MiB (5%)
Title : Дубляж
Language : Russian
Default : Yes
Forced : No
Audio #2
ID : 3
Format : AC-3
Format/Info : Audio Coding 3
Mode extension : CM (complete main)
Format settings, Endianness : Big
Codec ID : A_AC3
Duration : 1h 29mn
Bit rate mode : Constant
Bit rate : 640 Kbps
Channel(s) : 6 channels
Channel positions : Front: L C R, Side: L R, LFE
Sampling rate : 48.0 KHz
Bit depth : 16 bits
Compression mode : Lossy
Stream size : 411 MiB (7%)
Title : Оригинал
Language : English
Default : No
Forced : No
Text #1
ID : 4
Format : UTF-8
Codec ID : S_TEXT/UTF8
Codec ID/Info : UTF-8 Plain Text
Title : Форсированные, на надписи
Language : Russian
Default : Yes
Forced : No
Text #2
ID : 5
Format : UTF-8
Codec ID : S_TEXT/UTF8
Codec ID/Info : UTF-8 Plain Text
Title : Английские iTunes
Language : English
Default : No
Forced : No




Показать сообщения:    

Текущее время: 25-Мар 20:38

Часовой пояс: UTC + 11


Вы не можете начинать темы
Вы не можете отвечать на сообщения
Вы не можете редактировать свои сообщения
Вы не можете удалять свои сообщения
Вы не можете голосовать в опросах
Вы не можете прикреплять файлы к сообщениям
Вы не можете скачивать файлы

Сайт не предоставляет электронные версии произведений, а занимается лишь коллекционированием и каталогизацией ссылок, присылаемых и публикуемых на форуме нашими читателями. Если вы являетесь правообладателем какого-либо представленного материала и не желаете, чтобы ссылка на него находилась в нашем каталоге, свяжитесь с нами, и мы незамедлительно удалим ее. Файлы для обмена на трекере предоставлены пользователями сайта, и администрация не несет ответственности за их содержание. Просьба не заливать файлы, защищенные авторскими правами, а также файлы нелегального содержания!