+100


Топ за 24 часа
 
 

[Цитировать]

--Валерия - По серпантину-- Год издания: 2013
Страна: Россия
Жанр: Pop
Продолжительность: 00:58:04-Лейбл издания: Союз
Страна-выпуска диска: Россия
Номер по каталогу: SZCD-6196-13
Формат: FLAC
Битрейт аудио: lossless
Тип рипа: image+.cue
Наличие сканов в содержимом раздачи: да-

Трэклист

01. По серпантину
02. Не теряй меня (дуэт с Валерием Меладзе)
03. Я буду ждать тебя (OST "Полярный рейс")
04. Я тебя отпустила
05. Небо звездами
06. Сердце (дуэт с Александром Буйновым)
07. Подруга
08. Жди меня
09. Пока на улице январь
10. Цветок и нож
11. Дай бог
12. Сочи
13. Сохранив любовь (дуэт с Николаем Басковым)
14. Руки
15. На Ивана Купала (дуэт с Горан Брегович)

Лог создания рипа

Exact Audio Copy V1.0 beta 3 from 29. August 2011
Отчёт EAC об извлечении, выполненном 28. апреля 2013, 15:16
Валерия / По серпантину
Дисковод: ATAPI iHAS122 Adapter: 2 ID: 2
Режим чтения : Достоверность
Использование точного потока : Да
Отключение кэша аудио : Да
Использование указателей C2 : Нет
Коррекция смещения при чтении : 6
Способность читать области Lead-in и Lead-out : Нет
Заполнение пропущенных сэмплов тишиной : Да
Удаление блоков с тишиной в начале и конце : Нет
При вычислениях CRC использовались нулевые сэмплы : Да
Интерфейс : Встроенный Win32-интерфейс для Win NT/2000
Выходной формат : Пользовательский кодировщик
Выбранный битрейт : 768 kBit/s
Качество : Высокий
Добавление ID3-тега : Нет
Утилита сжатия : C:\Program Files\Exact Audio Copy\Flac\flac.exe
Дополнительные параметры : -V -8 -T "Date=%year%" -T "Genre=%genre%" %source%
TOC извлечённого CD
Трек | Старт | Длительность | Начальный сектор | Конечный сектор
---------------------------------------------------------------------
1 | 0:00.00 | 4:00.15 | 0 | 18014
2 | 4:00.15 | 4:35.06 | 18015 | 38645
3 | 8:35.21 | 3:15.12 | 38646 | 53282
4 | 11:50.33 | 3:52.27 | 53283 | 70709
5 | 15:42.60 | 3:13.16 | 70710 | 85200
6 | 18:56.01 | 3:46.40 | 85201 | 102190
7 | 22:42.41 | 3:38.16 | 102191 | 118556
8 | 26:20.57 | 3:44.53 | 118557 | 135409
9 | 30:05.35 | 3:34.52 | 135410 | 151511
10 | 33:40.12 | 4:51.62 | 151512 | 173398
11 | 38:31.74 | 4:53.68 | 173399 | 195441
12 | 43:25.67 | 3:26.44 | 195442 | 210935
13 | 46:52.36 | 3:56.44 | 210936 | 228679
14 | 50:49.05 | 3:48.32 | 228680 | 245811
15 | 54:37.37 | 3:54.59 | 245812 | 263420
Характеристики диапазона извлечения и сообщения об ошибках
Выбранный диапазон
Имя файла C:\RIPPER\Валерия - По серпантину.wav
Пиковый уровень 100.0 %
Скорость извлечения 8.4 X
Качество диапазона 100.0 %
CRC теста 4A8CB4FF
CRC копии 4A8CB4FF
Копирование... OK
Ошибок не произошло
AccurateRip: сводка
Трек 1 отсутствует в базе данных
Трек 2 отсутствует в базе данных
Трек 3 отсутствует в базе данных
Трек 4 отсутствует в базе данных
Трек 5 отсутствует в базе данных
Трек 6 отсутствует в базе данных
Трек 7 отсутствует в базе данных
Трек 8 отсутствует в базе данных
Трек 9 отсутствует в базе данных
Трек 10 отсутствует в базе данных
Трек 11 отсутствует в базе данных
Трек 12 отсутствует в базе данных
Трек 13 отсутствует в базе данных
Трек 14 отсутствует в базе данных
Трек 15 отсутствует в базе данных
Ни одного трека нет в базе AccurateRip
Конец отчёта
==== Контрольная сумма отчёта D2DB83752DA68A2D4962EBF533ED4659304E53EEFEA121C4520409BF7EA9C541 ====

Индексная карта (non-compilant .cue)

REM GENRE Pop
REM DATE 2013
REM DISCID B80DB80F
REM COMMENT "ExactAudioCopy v1.0b3"
PERFORMER "Валерия"
TITLE "По серпантину"
FILE "Валерия - По серпантину.flac" WAVE
TRACK 01 AUDIO
TITLE "По серпантину"
PERFORMER "Валерия"
FLAGS DCP
INDEX 01 00:00:00
TRACK 02 AUDIO
TITLE "Не теряй меня (дуэт с Валерием Меладзе)"
PERFORMER "Валерия и В.Меладзе"
FLAGS DCP
INDEX 00 03:58:15
INDEX 01 04:00:15
TRACK 03 AUDIO
TITLE "Я буду ждать тебя (OST Полярный рейс)"
PERFORMER "Валерия"
FLAGS DCP
INDEX 00 08:33:21
INDEX 01 08:35:21
TRACK 04 AUDIO
TITLE "Я тебя отпустила"
PERFORMER "Валерия"
FLAGS DCP
INDEX 00 11:48:33
INDEX 01 11:50:33
TRACK 05 AUDIO
TITLE "Небо звездами"
PERFORMER "Валерия"
FLAGS DCP
INDEX 00 15:40:61
INDEX 01 15:42:60
TRACK 06 AUDIO
TITLE "Сердце (дуэт с Александром Буйновым)"
PERFORMER "Валерия и А.Буйнов"
FLAGS DCP
INDEX 00 18:54:01
INDEX 01 18:56:01
TRACK 07 AUDIO
TITLE "Подруга"
PERFORMER "Валерия"
FLAGS DCP
INDEX 00 22:40:41
INDEX 01 22:42:41
TRACK 08 AUDIO
TITLE "Жди меня"
PERFORMER "Валерия"
FLAGS DCP
INDEX 00 26:18:57
INDEX 01 26:20:57
TRACK 09 AUDIO
TITLE "Пока на улице январь"
PERFORMER "Валерия"
FLAGS DCP
INDEX 00 30:03:35
INDEX 01 30:05:35
TRACK 10 AUDIO
TITLE "Цветок и нож"
PERFORMER "Валерия"
FLAGS DCP
INDEX 00 33:38:12
INDEX 01 33:40:12
TRACK 11 AUDIO
TITLE "Дай бог"
PERFORMER "Валерия"
FLAGS DCP
INDEX 00 38:29:74
INDEX 01 38:31:74
TRACK 12 AUDIO
TITLE "Сочи"
PERFORMER "Валерия"
FLAGS DCP
INDEX 00 43:23:67
INDEX 01 43:25:67
TRACK 13 AUDIO
TITLE "Сохранив любовь (дуэт с Николаем Басковым)"
PERFORMER "Валерия и Н.Басков"
FLAGS DCP
INDEX 00 46:50:36
INDEX 01 46:52:36
TRACK 14 AUDIO
TITLE "Руки"
PERFORMER "Валерия"
FLAGS DCP
INDEX 00 50:47:05
INDEX 01 50:49:05
TRACK 15 AUDIO
TITLE "На Ивана Купала (дуэт с Горан Брегович)"
PERFORMER "Валерия и Г.Брегович"
FLAGS DCP
INDEX 00 54:35:37
INDEX 01 54:37:37
INDEX 02 58:22:73

Лог auCDtect Task Manager

-----------------------
DON'T MODIFY THIS FILE
-----------------------
PERFORMER: auCDtect Task Manager, ver. 1.5.1RC6 build 1.5.1.7
Copyright (c) 2008-2010 y-soft. All rights reserved
http://y-soft.org
ANALYZER: auCDtect: CD records authenticity detector, version 0.8.2
Copyright (c) 2004 Oleg Berngardt. All rights reserved.
Copyright (c) 2004 Alexander Djourik. All rights reserved.
FILE: Валерия - По серпантину.flac
Size: 424055166 Hash: 1EB6273980E7F6513150F2AB483CAF54 Accuracy: -m0
Conclusion: CDDA 99%
Signature: 5EBF04BC597AA94D27D084A9ECCCB0C3B35887ED




Показать сообщения:    

Текущее время: 07-Дек 21:30

Часовой пояс: UTC + 11


Вы не можете начинать темы
Вы не можете отвечать на сообщения
Вы не можете редактировать свои сообщения
Вы не можете удалять свои сообщения
Вы не можете голосовать в опросах
Вы не можете прикреплять файлы к сообщениям
Вы не можете скачивать файлы

Сайт не предоставляет электронные версии произведений, а занимается лишь коллекционированием и каталогизацией ссылок, присылаемых и публикуемых на форуме нашими читателями. Если вы являетесь правообладателем какого-либо представленного материала и не желаете, чтобы ссылка на него находилась в нашем каталоге, свяжитесь с нами, и мы незамедлительно удалим ее. Файлы для обмена на трекере предоставлены пользователями сайта, и администрация не несет ответственности за их содержание. Просьба не заливать файлы, защищенные авторскими правами, а также файлы нелегального содержания!