+100


 

[Цитировать]

- Тролли | Trolls (2016) WEB-DLRip [H.264] -Производство: США | DreamWorks Animation
Жанр: Мюзикл, фэнтези, комедия, приключения, семейный
Режиссер: Уолт Дорн, Майк Митчелл
Роли озвучивали: Анна Кендрик, Зои Дешанель, Джастин Тимберлэйк, Кристин Барански, Джеффри Тэмбор, Кристофер Минц-Плассе, Джеймс Корден, Кунал Нэйэр, Гвен Стефани, Расселл Брэнд
Описание:
Отправляясь в увлекательное приключение, которое заведет ее далеко от привычного ей мира, Розочка объединяет усилия с самым мрачным троллем на свете по имени Цветан для достижения успеха в своей смелой миссии спасти ее друзей из тисков зловещих бергенов и их лидера, короля Хрящ Старший. Невероятные приключения Розочки проверят ее силу, покажут ее истинную суть и бросят вызов ее способности ударяться в пение в любой момент.

Возраст: 6+ (зрителям, достигшим 6 лет)
Рейтинг MPAA: PG (рекомендуется присутствие родителей)
Дата мировой премьеры: 8 октября 2016
Дата российской премьеры: 27 октября 2016, «Двадцатый Век Фокс СНГ»
Продолжительность: 01:32:48
Качество видео: WEB-DLRip
Перевод: Дублированный [iTunes]
Язык субтитров: Русский (форс., полные), Английский (полные)
Вид субтитров: Вшитые отключаемые
Видео: AVC/H.264, 1024x434, ~1566 kbps
Аудио #1: AC3, 48 kHz, 6 ch, 384 kbps [русский]
Аудио #2: AC3, 48 kHz, 2 ch, 192 kbps [английский]

MediaInfo

Format : Matroska
Format version : Version 4 / Version 2
File size : 1.42 GiB
Duration : 1h 32 min
Overall bit rate : 2 186 kb/s
Movie name : Тролли / Trolls (2016) :: AFM ::
Encoded date : UTC 2016-12-23 06:56:47
Writing application : mkvmerge v8.3.0 ('Over the Horizon') 32bit
Writing library : libebml v1.3.1 + libmatroska v1.4.2
Video
ID : 1
Format : AVC
Format/Info : Advanced Video Codec
Format profile : High@L4.1
Format settings, CABAC : Yes
Format settings, ReFrames : 10 frames
Codec ID : V_MPEG4/ISO/AVC
Duration : 1h 32 min
Bit rate : 1 567 kb/s
Width : 1 024 pixels
Height : 434 pixels
Display aspect ratio : 2.35:1
Frame rate mode : Constant
Frame rate : 23.976 (24000/1001) FPS
Color space : YUV
Chroma subsampling : 4:2:0
Bit depth : 8 bits
Scan type : Progressive
Bits/(Pixel*Frame) : 0.147
Stream size : 1.02 GiB (72%)
Title : WEB-DLRip by AFM
Writing library : x264 core 148 r2744+55 950084e t_mod_Custom [8-bit@all X86_64]
Encoding settings : cabac=1 / ref=10 / deblock=1:-3:-3 / analyse=0x3:0x113 / me=umh / subme=10 / psy=1 / fade_compensate=0.00 / psy_rd=1.00:0.00 / mixed_ref=1 / me_range=32 / chroma_me=1 / trellis=2 / 8x8dct=1 / cqm=0 / deadzone=21,11 / fast_pskip=0 / chroma_qp_offset=-2 / threads=6 / lookahead_threads=1 / sliced_threads=0 / nr=0 / decimate=0 / interlaced=0 / bluray_compat=0 / constrained_intra=0 / fgo=0 / bframes=10 / b_pyramid=2 / b_adapt=2 / b_bias=0 / direct=1 / weightb=1 / open_gop=0 / weightp=2 / keyint=240 / keyint_min=23 / scenecut=40 / intra_refresh=0 / rc_lookahead=40 / rc=crf / mbtree=0 / crf=18.8000 / qcomp=0.65 / qpmin=0:0:0 / qpmax=69:69:69 / qpstep=4 / vbv_maxrate=50000 / vbv_bufsize=62500 / crf_max=0.0 / nal_hrd=none / filler=0 / ip_ratio=1.35 / pb_ratio=1.30 / aq=3:0.80 / aq-sensitivity=10.00 / aq-factor=1.00:1.00:1.00 / aq2=0 / aq3=0 / zones=117560,133520,q=25
Language : English
Default : Yes
Forced : No
Audio #1
ID : 2
Format : AC-3
Format/Info : Audio Coding 3
Mode extension : CM (complete main)
Format settings, Endianness : Big
Codec ID : A_AC3
Duration : 1h 32 min
Bit rate mode : Constant
Bit rate : 384 kb/s
Channel(s) : 6 channels
Channel positions : Front: L C R, Side: L R, LFE
Sampling rate : 48.0 kHz
Frame rate : 31.250 FPS (1536 spf)
Compression mode : Lossy
Stream size : 255 MiB (18%)
Title : Dub, AC3 5.1 ~384 kbps
Language : Russian
Default : Yes
Forced : No
Audio #2
ID : 3
Format : AC-3
Format/Info : Audio Coding 3
Mode extension : CM (complete main)
Format settings, Endianness : Big
Codec ID : A_AC3
Duration : 1h 32 min
Bit rate mode : Constant
Bit rate : 192 kb/s
Channel(s) : 2 channels
Channel positions : Front: L R
Sampling rate : 48.0 kHz
Frame rate : 31.250 FPS (1536 spf)
Compression mode : Lossy
Stream size : 127 MiB (9%)
Title : Original, AC3 2.0 ~192 kbps
Language : English
Default : No
Forced : No
Text #1
ID : 4
Format : UTF-8
Codec ID : S_TEXT/UTF8
Codec ID/Info : UTF-8 Plain Text
Title : Forced, iTunes
Language : Russian
Default : Yes
Forced : No
Text #2
ID : 5
Format : UTF-8
Codec ID : S_TEXT/UTF8
Codec ID/Info : UTF-8 Plain Text
Title : iTunes
Language : Russian
Default : No
Forced : No
Text #3
ID : 6
Format : UTF-8
Codec ID : S_TEXT/UTF8
Codec ID/Info : UTF-8 Plain Text
Title : iTunes
Language : English
Default : No
Forced : No
Menu
00:00:00.000 : en:1
00:02:19.472 : en:2
00:06:21.922 : en:3
00:10:41.640 : en:4
00:13:25.595 : en:5
00:18:33.361 : en:6
00:22:11.787 : en:7
00:25:40.078 : en:8
00:28:52.728 : en:9
00:32:54.094 : en:10
00:36:32.103 : en:11
00:40:55.783 : en:12
00:44:20.654 : en:13
00:47:26.965 : en:14
00:51:26.079 : en:15
00:55:44.670 : en:16
00:59:57.756 : en:17
01:03:16.079 : en:18
01:05:16.657 : en:19
01:07:55.524 : en:20
01:10:24.256 : en:21
01:13:30.650 : en:22
01:16:20.236 : en:23
01:21:43.726 : en:24
Скриншоты:




Показать сообщения:    

Текущее время: 18-Авг 18:00

Часовой пояс: UTC + 11


Вы не можете начинать темы
Вы не можете отвечать на сообщения
Вы не можете редактировать свои сообщения
Вы не можете удалять свои сообщения
Вы не можете голосовать в опросах
Вы не можете прикреплять файлы к сообщениям
Вы не можете скачивать файлы

Сайт не предоставляет электронные версии произведений, а занимается лишь коллекционированием и каталогизацией ссылок, присылаемых и публикуемых на форуме нашими читателями. Если вы являетесь правообладателем какого-либо представленного материала и не желаете, чтобы ссылка на него находилась в нашем каталоге, свяжитесь с нами, и мы незамедлительно удалим ее. Файлы для обмена на трекере предоставлены пользователями сайта, и администрация не несет ответственности за их содержание. Просьба не заливать файлы, защищенные авторскими правами, а также файлы нелегального содержания!