+100


 

[Цитировать]

- Доктор Стрейнджлав, или Как я научился не волноваться и полюбил атомную бомбу / Dr. Strangelove or: How I Learned to Stop Worrying and Love the Bomb (1963) BDRip -Производство: США, Великобритания / Columbia Pictures Corporation, Hawk Films Ltd.
Жанр: Комедия
Режиссер: Стэнли Кубрик
Актеры: Питер Селлерс, Джордж К. Скотт, Стерлинг Хейден, Кинен Уинн, Слим Пикенс, Питер Булл, Джеймс Эрл Джонс, Трейси Рид, Джек Крили, Фрэнк Берри
Описание:
Одержимый мыслью о том, что коммунисты намереваются украсть у американцев их «бесценные телесные соки», генерал Джек Д. Риппер, командир военно-воздушной базы посылает эскадрилью бомбардировщиков с ядерным оружием бомбить СССР. Президент США Маффи пытается спасти положение, он собирает своих советников, включая доблестного генерала Тергидсона и прикованного к инвалидной коляске бывшего нацистского ученого доктора Стрейнджлава.
По роману Питера Джорджа "Красная тревога". Номинации на "Оскар" в 1964 г. за лучший фильм, лучшую мужскую роль, лучшую режиссуру и лучший адаптированный сценарий.

Рейтинг MPAA: PG (рекомендуется присутствие родителей)
Релиз от: Luigi36
Продолжительность: 01:34:46
Качество видео: BDRip
Перевод: Многоголосый закадровый (Первый канал)
Язык субтитров: Русский
Вид субтитров: Вшитые (отключаемые)
Видео: HEVC/H.265, 1792x1080, ~5433 Kbps
Аудио: AC3, 2 ch, 192 Kbps, CBR

MediaInfo

Общее
Уникальный идентификатор : 207238320250261620665539442145103582200 (0x9BE8A60E8BAFED4B942DBF768F0A13F8)
Полное имя : E:\Video\Доктор Стрейнджлав, или Как я научился не волноваться и полюбил атомную бомбу (Dr Strangelove or How I Learned to Stop Worrying and Love the Bomb).mkv
Формат : Matroska
Версия формата : Version 4 / Version 2
Размер файла : 3,72 Гбайт
Продолжительность : 1 ч. 34 м.
Общий поток : 5627 Кбит/сек
Название фильма : Доктор Стрейнджлав, или Как я научился не волноваться и полюбил атомную бомбу / Dr. Strangelove or: How I Learned to Stop Worrying and Love the Bomb
Дата кодирования : UTC 2016-12-23 08:13:37
Программа кодирования : mkvmerge v9.0.1 ('Obstacles') 64bit
Библиотека кодирования : libebml v1.3.3 + libmatroska v1.4.4
Видео
Идентификатор : 1
Формат : HEVC
Формат/Информация : High Efficiency Video Coding
Профиль формата : Main@L4@Main
Идентификатор кодека : V_MPEGH/ISO/HEVC
Продолжительность : 1 ч. 34 м.
Битрейт : 5433 Кбит/сек
Ширина : 1792 пикселя
Высота : 1080 пикселей
Соотношение сторон : 5:3
Режим частоты кадров : Постоянный
Частота кадров : 23,976 (24000/1001) кадра/сек
Цветовое пространство : YUV
Субдискретизация насыщенности : 4:2:0
Битовая глубина : 8 бит
Бит/(Пиксели*Кадры) : 0.117
Размер потока : 3,60 Гбайт (97%)
Заголовок : Il Dottor Stranamore BdRip 1080p HEVC (*** Luigi36 ***)
Библиотека кодирования : x265 2.0:[Windows][GCC 5.4.0][64 bit] 8bit
Настройки программы : wpp / ctu=64 / min-cu-size=8 / max-tu-size=32 / tu-intra-depth=1 / tu-inter-depth=1 / me=2 / subme=2 / merange=57 / no-rect / no-amp / max-merge=2 / temporal-mvp / early-skip / rskip / rdpenalty=0 / no-tskip / no-tskip-fast / strong-intra-smoothing / no-lossless / no-cu-lossless / no-constrained-intra / fast-intra / open-gop / no-temporal-layers / interlace=0 / keyint=240 / min-keyint=24 / scenecut=40 / rc-lookahead=15 / lookahead-slices=6 / bframes=4 / bframe-bias=0 / b-adapt=0 / ref=2 / limit-refs=3 / no-limit-modes / weightp / no-weightb / aq-mode=1 / qg-size=32 / aq-strength=1.00 / cbqpoffs=0 / crqpoffs=0 / rd=2 / psy-rd=2.00 / rdoq-level=0 / psy-rdoq=0.00 / no-rd-refine / signhide / deblock=0:0 / sao / no-sao-non-deblock / b-pyramid / cutree / no-intra-refresh / rc=crf / crf=20.0 / qcomp=0.60 / qpmin=0 / qpmax=51 / qpstep=4 / ipratio=1.40 / pbratio=1.30
Default : Да
Forced : Нет
Цветовой диапазон : Limited
Основные цвета : BT.709
Характеристики трансфера : BT.709
Коэффициенты матрицы : BT.709
Аудио
Идентификатор : 2
Формат : AC-3
Формат/Информация : Audio Coding 3
Расширение режима : CM (complete main)
Параметр Endianness формата : Big
Идентификатор кодека : A_AC3
Продолжительность : 1 ч. 34 м.
Вид битрейта : Постоянный
Битрейт : 192 Кбит/сек
Каналы : 2 канала
Расположение каналов : Front: L R
Частота : 48,0 КГц
Частота кадров : 31,250 кадров/сек (1536 spf)
Метод сжатия : С потерями
Размер потока : 130 Мбайт (3%)
Заголовок : Перевод: Профессиональный (многоголосый, закадровый) | Первый канал
Язык : Russian
Default : Да
Forced : Нет
Текст
Идентификатор : 3
Формат : UTF-8
Идентификатор кодека : S_TEXT/UTF8
Идентификатор кодека/Информация : UTF-8 Plain Text
Продолжительность : 1 ч. 32 м.
Битрейт : 127 бит/сек
Count of elements : 1206
Размер потока : 86,3 Кбайт (0%)
Язык : Russian
Default : Да
Forced : Нет
Меню
00:00:00.000 : en:00:00:00.000
00:01:05.065 : en:00:01:05.065
00:03:15.195 : en:00:03:15.195
00:05:49.349 : en:00:05:49.349
00:06:48.408 : en:00:06:48.408
00:07:18.438 : en:00:07:18.438
00:08:09.489 : en:00:08:09.489
00:09:53.593 : en:00:09:53.593
00:10:18.618 : en:00:10:18.618
00:13:48.828 : en:00:13:48.828
00:16:29.989 : en:00:16:29.989
00:23:26.405 : en:00:23:26.405
00:24:43.482 : en:00:24:43.482
00:26:54.613 : en:00:26:54.613
00:30:10.809 : en:00:30:10.809
00:33:35.013 : en:00:33:35.013
00:34:30.068 : en:00:34:30.068
00:35:41.139 : en:00:35:41.139
00:37:45.263 : en:00:37:45.263
00:38:29.307 : en:00:38:29.307
00:40:14.412 : en:00:40:14.412
00:40:45.443 : en:00:40:45.443
00:42:04.522 : en:00:42:04.522
00:43:10.588 : en:00:43:10.588
00:45:26.724 : en:00:45:26.724
00:46:32.790 : en:00:46:32.790
00:50:40.037 : en:00:50:40.037
00:51:26.083 : en:00:51:26.083
00:52:33.150 : en:00:52:33.150
00:54:00.237 : en:00:54:00.237
00:56:02.359 : en:00:56:02.359
01:01:25.682 : en:01:01:25.682
01:03:04.781 : en:01:03:04.781
01:07:52.068 : en:01:07:52.068
01:08:48.124 : en:01:08:48.124
01:11:28.284 : en:01:11:28.284
01:13:27.403 : en:01:13:27.403
01:15:43.539 : en:01:15:43.539
01:18:18.694 : en:01:18:18.694
01:24:22.057 : en:01:24:22.057
01:25:49.144 : en:01:25:49.144
01:27:40.255 : en:01:27:40.255
01:29:43.378 : en:01:29:43.378
01:31:34.489 : en:01:31:34.489
01:33:04.579 : en:01:33:04.579
01:34:12.647 : en:01:34:12.647
XMP
Xmp.video.FileName : E:\Video\Доктор Стрейнджлав, или Как я научился не волноваться и полюбил атомную бомбу (Dr Strangelove or How I Learned to Stop Worrying and Love the Bomb).mkv
Xmp.video.FileSize : -282.348
Xmp.video.MimeType : video/matroska
Xmp.video.EBMLVersion : 1
Xmp.video.EBMLReadVersion : 1
Xmp.video.DocType : matroska
Xmp.video.DocTypeVersion : 4
Xmp.video.DocTypeReadVersion : 2
Xmp.video.TimecodeScale : 0.001
Xmp.video.MuxingApp : libebml v1.3.3 + libmatroska v1.4.4
Xmp.video.WritingApp : mkvmerge v9.0.1 ('Obstacles') 64bit
Xmp.video.Duration : 5685680
Xmp.video.DateUTC : 504173617
Xmp.video.TotalStream : 6
Xmp.video.TrackLacing : No
Xmp.video.Codec : V_MPEGH/ISO/HEVC
Xmp.video.FrameRate : 23.976
Xmp.video.TrackLang : und
Xmp.video.TrackName : Перевод: Профессиональный (многоголосый, закадровый) | Первый канал
Xmp.video.Width : 1792
Xmp.video.Height : 1080
Xmp.audio.Compressor : A_AC3
Xmp.audio.DefaultDuration : 32000
Xmp.audio.TrackLang : rus
Xmp.audio.SampleRate : 48000
Xmp.audio.ChannelType : Stereo
Xmp.video.SubTTrackLacing : No
Xmp.video.SubTCodec : S_TEXT/UTF8
Xmp.video.SubTLang : rus
Xmp.video.AspectRatio : 16:10
Скриншоты:




Показать сообщения:    

Текущее время: 15-Дек 00:13

Часовой пояс: UTC + 11


Вы не можете начинать темы
Вы не можете отвечать на сообщения
Вы не можете редактировать свои сообщения
Вы не можете удалять свои сообщения
Вы не можете голосовать в опросах
Вы не можете прикреплять файлы к сообщениям
Вы не можете скачивать файлы

Сайт не предоставляет электронные версии произведений, а занимается лишь коллекционированием и каталогизацией ссылок, присылаемых и публикуемых на форуме нашими читателями. Если вы являетесь правообладателем какого-либо представленного материала и не желаете, чтобы ссылка на него находилась в нашем каталоге, свяжитесь с нами, и мы незамедлительно удалим ее. Файлы для обмена на трекере предоставлены пользователями сайта, и администрация не несет ответственности за их содержание. Просьба не заливать файлы, защищенные авторскими правами, а также файлы нелегального содержания!