+100


Топ за 24 часа
 
 

[Цитировать]

- Отряд Кочубея (Вторые) (2009) SATRip [H.264] (серии 1-8 из 8) -Производство: Россия / Компания Телеостров / Мосфильм
Жанр: Военный, Драма
Режиссер: Александр Даруга
Актеры: Алексей Воробьев, Анатолий Пашинин, Владимир Стеклов, Игорь Лагутин, Сергей Удовик, Дмитрий Муляр, Александр Робак, Владимир Зайцев, Юрий Ваксман, Кирилл Гребенщиков
Описание:
В августе 1941 года немецкие войска от Москвы отделяли всего 300 километров. В сериале «Вторые» действие разворачивается во время проверки маршрута первых лиц государства. В их числе должен был быть сам Иосиф Сталин. Сотрудники НКВД обнаруживают немецких диверсантов, но попытка задержания почти проваливается — те используют секретное оружие. После взрыва снаряда убиты два диверсанта и сотрудник НКВД, одному врагу удается скрыться, а второго берут в плен. Раненый рассказывает о подготовке покушения на Сталина. Для поиска тренировочного лагеря немецких диверсантов формируют два отряда. Первый должен отправиться к месту, которое указал раненый. А второй — отвлекать немецкую разведку...

Возраст: 16+ (зрителям, достигшим 16 лет)
Продолжительность: ~00:43:00 серия
Качество видео: SATRip
Видео: AVC/H.264, 720x400, ~1500 Кбит/сек
Аудио: AC3,192 Кбит/сек,2 канала, CBR

MediaInfo

Общее
Уникальный идентификатор : 179077621254114399230537119355249431373 (0x86B91866847D6FD0A15271B2B4D9134D)
Полное имя : G:\Отряд Кочубея (Вторые)\02 серия_Отряд Кочубея_rip by_Aleksan55.mkv
Формат : Matroska
Версия формата : Version 2
Размер файла : 529 Мбайт
Продолжительность : 43 м.
Общий поток : 1694 Кбит/сек
Дата кодирования : UTC 2016-12-21 00:39:47
Программа кодирования : mkvmerge v7.8.0 ('River Man') 32bit built on Apr 3 2015 12:11:22
Библиотека кодирования : libebml v1.3.1 + libmatroska v1.4.2
Видео
Идентификатор : 1
Формат : AVC
Формат/Информация : Advanced Video Codec
Профиль формата : High@L3.1
Параметр CABAC формата : Да
Параметр ReFrames формата : 14 кадров
Идентификатор кодека : V_MPEG4/ISO/AVC
Продолжительность : 43 м.
Битрейт : 1500 Кбит/сек
Ширина : 720 пикселей
Высота : 400 пикселей
Соотношение сторон : 16:9
Режим частоты кадров : Постоянный
Частота кадров : 25,000 кадров/сек
Цветовое пространство : YUV
Субдискретизация насыщенности : 4:2:0
Битовая глубина : 8 бит
Тип развёртки : Прогрессивная
Бит/(Пиксели*Кадры) : 0.208
Размер потока : 459 Мбайт (87%)
Библиотека кодирования : x264 core 148 r2638 7599210
Настройки программы : cabac=1 / ref=14 / deblock=1:-1:-1 / analyse=0x3:0x133 / me=umh / subme=9 / psy=1 / psy_rd=1.00:0.15 / mixed_ref=0 / me_range=32 / chroma_me=1 / trellis=2 / 8x8dct=1 / cqm=0 / deadzone=21,11 / fast_pskip=0 / chroma_qp_offset=-3 / threads=3 / lookahead_threads=3 / sliced_threads=0 / nr=0 / decimate=0 / interlaced=0 / bluray_compat=0 / constrained_intra=0 / bframes=14 / b_pyramid=2 / b_adapt=1 / b_bias=0 / direct=3 / weightb=1 / open_gop=0 / weightp=2 / keyint=250 / keyint_min=25 / scenecut=40 / intra_refresh=0 / rc_lookahead=70 / rc=2pass / mbtree=1 / bitrate=1500 / ratetol=1.0 / qcomp=0.80 / qpmin=0 / qpmax=40 / qpstep=4 / cplxblur=20.0 / qblur=0.5 / ip_ratio=1.40 / aq=1:1.20
Default : Да
Forced : Нет
Цветовой диапазон : Limited
Основные цвета : BT.601 PAL
Характеристики трансфера : BT.470 System B, BT.470 System G
Коэффициенты матрицы : BT.601
Аудио
Идентификатор : 2
Формат : AC-3
Формат/Информация : Audio Coding 3
Расширение режима : CM (complete main)
Параметр Endianness формата : Big
Идентификатор кодека : A_AC3
Продолжительность : 43 м.
Вид битрейта : Постоянный
Битрейт : 192 Кбит/сек
Каналы : 2 канала
Расположение каналов : Front: L R
Частота : 48,0 КГц
Метод сжатия : С потерями
Размер потока : 60,0 Мбайт (11%)
Default : Да
Forced : Нет
Скриншоты:




Показать сообщения:    

Текущее время: 15-Дек 21:12

Часовой пояс: UTC + 11


Вы не можете начинать темы
Вы не можете отвечать на сообщения
Вы не можете редактировать свои сообщения
Вы не можете удалять свои сообщения
Вы не можете голосовать в опросах
Вы не можете прикреплять файлы к сообщениям
Вы не можете скачивать файлы

Сайт не предоставляет электронные версии произведений, а занимается лишь коллекционированием и каталогизацией ссылок, присылаемых и публикуемых на форуме нашими читателями. Если вы являетесь правообладателем какого-либо представленного материала и не желаете, чтобы ссылка на него находилась в нашем каталоге, свяжитесь с нами, и мы незамедлительно удалим ее. Файлы для обмена на трекере предоставлены пользователями сайта, и администрация не несет ответственности за их содержание. Просьба не заливать файлы, защищенные авторскими правами, а также файлы нелегального содержания!