+100


Топ за 24 часа
 
 

[Цитировать]

- Тролли / Trolls (2016) WEB-DL [H.264/1080p-LQ]-Производство: США, DreamWorks Animation
Жанр: Мультфильм, мюзикл, фэнтези, комедия, приключения, семейный
Режиссер: Уолт Дорн, Майк Митчелл
Продюсер: Джонатан Айбел, Гленн Бергер, Холли Эдвардс
Актеры: Анна Кендрик, Зои Дешанель, Джастин Тимберлэйк, Кристин Барански, Джеффри Тэмбор, Кристофер Минц-Плассе, Джеймс Корден, Кунал Нэйэр, Гвен Стефани, Расселл Брэнд
Описание:
Отправляясь в увлекательное приключение, которое заведет ее далеко от привычного ей мира, Розочка объединяет усилия с самым мрачным троллем на свете по имени Цветан для достижения успеха в своей смелой миссии спасти ее друзей из тисков зловещих бергенов и их лидера, короля Хрящ Старший. Невероятные приключения Розочки проверят ее силу, покажут ее истинную суть и бросят вызов ее способности ударяться в пение в любой момент.

IMDB рейтинг: 6,7/10 - 9 025 голосов
Возраст: 6+ (зрителям, достигшим 6 лет)
Рейтинг MPAA: PG (рекомендуется присутствие родителей)
Дата мировой премьеры: 8 октября 2016
Дата российской премьеры: 27 октября 2016, «Двадцатый Век Фокс СНГ»
Продолжительность: 01:32:48
Качество видео: WEB-DL
Перевод: Дублированный (iTunes)
Вид субтитров: Вшитые отключаемые
Язык субтитров: Русский (Forced, Full), Английский (Full)
Видео: AVC/H.264, 1916x812 (2.35:1), 4428 kbps
Аудио »1: 48 kHz, AC3 Dolby Digital, 3/2 (L,C,R,l,r) + LFE ch, ~384 kbps (Русский)
Аудио »2: 48 kHz, AC3 Dolby Digital, 3/2 (L,C,R,l,r) + LFE ch, ~384 kbps (Английский)

MediaInfo

Общее
Уникальный идентификатор : 233092374736825432707157681148786420888 (0xAF5BF55BC2972267B3252C82AD5CAC98)
Полное имя : D:\Тролли.2016.WEB-DL.[1080p].NNMClub.to.mkv
Формат : Matroska
Версия формата : Version 2
Размер файла : 3,44 Гбайт
Продолжительность : 1 ч. 32 м.
Общий поток : 5302 Кбит/сек
Дата кодирования : UTC 2016-12-22 19:13:28
Программа кодирования : mkvmerge v3.4.0 ('Rapunzel') built on May 15 2010 09:38:20
Библиотека кодирования : libebml v0.8.0 + libmatroska v0.9.0
Видео
Идентификатор : 1
Формат : AVC
Формат/Информация : Advanced Video Codec
Профиль формата : High@L4
Параметр CABAC формата : Да
Параметр ReFrames формата : 5 кадров
Идентификатор кодека : V_MPEG4/ISO/AVC
Продолжительность : 1 ч. 32 м.
Битрейт : 4428 Кбит/сек
Ширина : 1916 пикселей
Высота : 812 пикселей
Соотношение сторон : 2,35:1
Режим частоты кадров : Постоянный
Частота кадров : 24,000 кадра/сек
Цветовое пространство : YUV
Субдискретизация насыщенности : 4:2:0
Битовая глубина : 8 бит
Тип развёртки : Прогрессивная
Бит/(Пиксели*Кадры) : 0.119
Размер потока : 2,87 Гбайт (84%)
Язык : English
Default : Да
Forced : Нет
Цветовой диапазон : Limited
Основные цвета : BT.709
Характеристики трансфера : BT.709
Коэффициенты матрицы : BT.709
Аудио #1
Идентификатор : 2
Формат : AC-3
Формат/Информация : Audio Coding 3
Расширение режима : CM (complete main)
Параметр Endianness формата : Big
Идентификатор кодека : A_AC3
Продолжительность : 1 ч. 32 м.
Вид битрейта : Постоянный
Битрейт : 384 Кбит/сек
Каналы : 6 каналов
Расположение каналов : Front: L C R, Side: L R, LFE
Частота : 48,0 КГц
Частота кадров : 31,250 кадров/сек (1536 spf)
Метод сжатия : С потерями
Размер потока : 255 Мбайт (7%)
Заголовок : AC3 5.1 @ 384 kbps - DUB, iTunes
Язык : Russian
Default : Да
Forced : Нет
Аудио #2
Идентификатор : 3
Формат : AC-3
Формат/Информация : Audio Coding 3
Расширение режима : CM (complete main)
Параметр Endianness формата : Big
Идентификатор кодека : A_AC3
Продолжительность : 1 ч. 32 м.
Вид битрейта : Постоянный
Битрейт : 384 Кбит/сек
Каналы : 6 каналов
Расположение каналов : Front: L C R, Side: L R, LFE
Частота : 48,0 КГц
Частота кадров : 31,250 кадров/сек (1536 spf)
Метод сжатия : С потерями
Размер потока : 255 Мбайт (7%)
Заголовок : AC3 5.1 @ 384 kbps
Язык : English
Default : Нет
Forced : Нет
Текст #1
Идентификатор : 4
Формат : UTF-8
Идентификатор кодека : S_TEXT/UTF8
Идентификатор кодека/Информация : UTF-8 Plain Text
Заголовок : Forced, iTunes
Язык : Russian
Default : Да
Forced : Нет
Текст #2
Идентификатор : 5
Формат : UTF-8
Идентификатор кодека : S_TEXT/UTF8
Идентификатор кодека/Информация : UTF-8 Plain Text
Заголовок : iTunes
Язык : Russian
Default : Нет
Forced : Нет
Текст #3
Идентификатор : 6
Формат : UTF-8
Идентификатор кодека : S_TEXT/UTF8
Идентификатор кодека/Информация : UTF-8 Plain Text
Заголовок : iTunes
Язык : English
Default : Нет
Forced : Нет
Меню
00:00:00.000 : en:1
00:02:19.472 : en:2
00:06:21.922 : en:3
00:10:41.640 : en:4
00:13:25.595 : en:5
00:18:33.361 : en:6
00:22:11.787 : en:7
00:25:40.078 : en:8
00:28:52.728 : en:9
00:32:54.094 : en:10
00:36:32.103 : en:11
00:40:55.783 : en:12
00:44:20.654 : en:13
00:47:26.965 : en:14
00:51:26.079 : en:15
00:55:44.670 : en:16
00:59:57.756 : en:17
01:03:16.079 : en:18
01:05:16.657 : en:19
01:07:55.524 : en:20
01:10:24.256 : en:21
01:13:30.650 : en:22
01:16:20.236 : en:23
01:21:43.726 : en:24
Скриншоты:




Показать сообщения:    

Текущее время: 24-Мар 11:03

Часовой пояс: UTC + 11


Вы не можете начинать темы
Вы не можете отвечать на сообщения
Вы не можете редактировать свои сообщения
Вы не можете удалять свои сообщения
Вы не можете голосовать в опросах
Вы не можете прикреплять файлы к сообщениям
Вы не можете скачивать файлы

Сайт не предоставляет электронные версии произведений, а занимается лишь коллекционированием и каталогизацией ссылок, присылаемых и публикуемых на форуме нашими читателями. Если вы являетесь правообладателем какого-либо представленного материала и не желаете, чтобы ссылка на него находилась в нашем каталоге, свяжитесь с нами, и мы незамедлительно удалим ее. Файлы для обмена на трекере предоставлены пользователями сайта, и администрация не несет ответственности за их содержание. Просьба не заливать файлы, защищенные авторскими правами, а также файлы нелегального содержания!