+100


Топ за 24 часа
 
 

[Цитировать]

-Маша и Медведь: С любимыми не расставайтесь (2016) WEB-DLRip (Серия 61)-Жанр: Детский, Комедия, Семейный
Производство: Россия, Студия "Анимаккорд"
Описание:
Как известно, чудеса очень любят Новый год и Рождество — поэтому-то они регулярно в большом количестве происходят в это время. Вот и Маша столкнулась с ними нос к носу, да многое поняла, голубчики. Например, что перед тем, как что-нибудь желать, нужно хорошенько подумать — точно ли оно вам надо. А ещё научилась важному: беречь старых друзей и помнить только хорошее. В общем, смотрите серию, вдохновляйтесь, а в наступающем году ни за что на расставайтесь с любимыми!
Режиссер: Олег Кузовков, Владислав Байрамгулов, Наталья Мальгина
Продюсер: Андрей Добрунов, Дмитрий Ловейко, Олег Кузовков
Персонажи: Алина Кукушкина, Эдуард Назаров, Борис Кутневич

Продолжительность: 00:07:28
Качество видео: WEB-DLRip
Вид субтитров: Отсутствуют
Видео: XviD, 720x400, 1569 kbps
Аудио: AC3 Dolby Digital, 2/0 (L,R) ch, ~192 kbps

MediaInfo

Общее
Полное имя                               : D:\Маша и медведь. С любимыми не расставайтесь (61 серия) WEB-DLRip.NNMClub.to.avi
Формат                                   : AVI
Формат/Информация                        : Audio Video Interleave
Размер файла                             : 94,7 Мбайт
Продолжительность                        : 7 м. 28 с.
Общий поток                              : 1770 Кбит/сек
Библиотека кодирования                   : VirtualDub build 35491/release
Видео
Идентификатор                            : 0
Формат                                   : MPEG-4 Visual
Профиль формата                          : Advanced Simple@L5
Параметр BVOP формата                    : 2
Параметр QPel формата                    : Нет
Параметр GMC формата                     : Без точки перехода
Параметр матрицы формата                 : Default (H.263)
Идентификатор кодека                     : XVID
Идентификатор кодека/Подсказка           : XviD
Продолжительность                        : 7 м. 28 с.
Битрейт                                  : 1569 Кбит/сек
Ширина                                   : 720 пикселей
Высота                                   : 400 пикселей
Соотношение сторон                       : 16:9
Частота кадров                           : 25,000 кадров/сек
Цветовое пространство                    : YUV
Субдискретизация насыщенности            : 4:2:0
Битовая глубина                          : 8 бит
Тип развёртки                            : Прогрессивная
Метод сжатия                             : С потерями
Бит/(Пиксели*Кадры)                      : 0.218
Размер потока                            : 83,9 Мбайт (89%)
Библиотека кодирования                   : XviD 67
Аудио
Идентификатор                            : 1
Формат                                   : AC-3
Формат/Информация                        : Audio Coding 3
Расширение режима                        : CM (complete main)
Параметр Endianness формата              : Big
Идентификатор кодека                     : 2000
Продолжительность                        : 7 м. 28 с.
Вид битрейта                             : Постоянный
Битрейт                                  : 192 Кбит/сек
Каналы                                   : 2 канала
Расположение каналов                     : Front: L R
Частота                                  : 48,0 КГц
Частота кадров                           : 31,250 кадров/сек (1536 spf)
Метод сжатия                             : С потерями
Размер потока                            : 10,3 Мбайт (11%)
Выравнивание                             : Соединение по промежуткам
Продолжительность промежутка             : 40  мс. (1,00 видеокадр)
Время предзагрузки промежутка            : 512  мс.
Скриншоты:




Показать сообщения:    

Текущее время: 25-Июн 00:49

Часовой пояс: UTC + 11


Вы не можете начинать темы
Вы не можете отвечать на сообщения
Вы не можете редактировать свои сообщения
Вы не можете удалять свои сообщения
Вы не можете голосовать в опросах
Вы не можете прикреплять файлы к сообщениям
Вы не можете скачивать файлы

Сайт не предоставляет электронные версии произведений, а занимается лишь коллекционированием и каталогизацией ссылок, присылаемых и публикуемых на форуме нашими читателями. Если вы являетесь правообладателем какого-либо представленного материала и не желаете, чтобы ссылка на него находилась в нашем каталоге, свяжитесь с нами, и мы незамедлительно удалим ее. Файлы для обмена на трекере предоставлены пользователями сайта, и администрация не несет ответственности за их содержание. Просьба не заливать файлы, защищенные авторскими правами, а также файлы нелегального содержания!