+100


 

[Цитировать]

- Пьяная фирма (2016) SATRip (сезон 1, серии 1-4 из 4) -Производство: Россия / Всемирные Русские Студии
Жанр: Комедия
Режиссер: Григорий Константинопольский
Актеры: Михаил Ефремов, Елизавета Боярская, Иван Макаревич, Виктория Исакова, Анна Михалкова, Марат Башаров, Юрий Колокольников, Ирина Апексимова, Диана Пентович, Виктория Толстоганова, Евгений Цыганов, Сергей Дмитриев
Описание:
Пьяная фирма расскажет историю про доктора Штучного, который по своим профессиональным качествам является просто гением. Хотя и работает он охранником и периодически пьет горькую, Григорий Михайлович может лечить состоятельных граждан от запоя своим секретным методом. Он предлагает своему соседу промоутеру искать клиентов, а он будет их выводить из запоя мягко и комфортно. Штучному нужны деньги, так как он хочет помочь главврачу больнице Анастасии Григорьевне, у которой проблемы с деньгами.

Возраст: 16+ (зрителям, достигшим 16 лет)
Дата российской премьеры: 19.12.2016
Продолжительность: 00:49:00 серия
Качество видео: SATRip
Видео: Xvid, 720x304, ~1650 kbit/s
Аудио: MP3, 2 ch, 192 kbit/s

MediaInfo

Общее
Полное имя : D:\СЕРИАЛЫ\ПЬЯНАЯ ФИРМА\Pyanaya.firma.2016.XviD.SATRip.BigFANGroup\Pyanaya.firma.(01.seriya).2016.XviD.SATRip.BigFANGroup.avi
Формат : AVI
Формат/Информация : Audio Video Interleave
Размер файла : 651 Мбайт
Продолжительность : 49 м.
Общий поток : 1852 Кбит/сек
Программа кодирования : VirtualDubMod 1.5.10.3 (build 2550/release)
Библиотека кодирования : VirtualDubMod build 2550/release
Видео
Идентификатор : 0
Формат : MPEG-4 Visual
Профиль формата : Advanced Simple@L5
Параметр BVOP формата : 1
Параметр QPel формата : Нет
Параметр GMC формата : Без точки перехода
Параметр матрицы формата : Default (MPEG)
Идентификатор кодека : XVID
Идентификатор кодека/Подсказка : XviD
Продолжительность : 49 м.
Битрейт : 1650 Кбит/сек
Ширина : 720 пикселей
Высота : 304 пикселя
Соотношение сторон : 2,35:1
Частота кадров : 25,000 кадров/сек
Цветовое пространство : YUV
Субдискретизация насыщенности : 4:2:0
Битовая глубина : 8 бит
Тип развёртки : Прогрессивная
Метод сжатия : С потерями
Бит/(Пиксели*Кадры) : 0.302
Размер потока : 580 Мбайт (89%)
Библиотека кодирования : XviD 1.2.1 (UTC 2008-12-04)
Аудио
Идентификатор : 1
Формат : MPEG Audio
Версия формата : Version 1
Профиль формата : Layer 3
Идентификатор кодека : 55
Идентификатор кодека/Подсказка : MP3
Продолжительность : 49 м.
Вид битрейта : Постоянный
Битрейт : 192 Кбит/сек
Каналы : 2 канала
Частота : 48,0 КГц
Метод сжатия : С потерями
Размер потока : 67,5 Мбайт (10%)
Выравнивание : Соединение по промежуткам
Продолжительность промежутка : 40 мс. (1,00 видеокадр)
Время предзагрузки промежутка : 504 мс.
Библиотека кодирования : LAME3.99r
Настройки программы : -m s -V 4 -q 2 -lowpass 18.6 -b 192
Скриншоты:




Показать сообщения:    

Текущее время: 26-Июн 14:47

Часовой пояс: UTC + 11


Вы не можете начинать темы
Вы не можете отвечать на сообщения
Вы не можете редактировать свои сообщения
Вы не можете удалять свои сообщения
Вы не можете голосовать в опросах
Вы не можете прикреплять файлы к сообщениям
Вы не можете скачивать файлы

Сайт не предоставляет электронные версии произведений, а занимается лишь коллекционированием и каталогизацией ссылок, присылаемых и публикуемых на форуме нашими читателями. Если вы являетесь правообладателем какого-либо представленного материала и не желаете, чтобы ссылка на него находилась в нашем каталоге, свяжитесь с нами, и мы незамедлительно удалим ее. Файлы для обмена на трекере предоставлены пользователями сайта, и администрация не несет ответственности за их содержание. Просьба не заливать файлы, защищенные авторскими правами, а также файлы нелегального содержания!