+100


Топ за 24 часа
 
 

[Цитировать]

- Тайны следствия (2014) HDTVRip (сезон 14, серии 1-16 из 16) -Производство: Россия / "Форвард-фильм", "Панорама"
Жанр: криминал, детектив
Режиссер: Ольга Кандидатова
Актеры: Анна Ковальчук, Вячеслав Захаров, Игорь Николаев, Александр Новиков, Ольга Павловец, Мирослав Малич, Злата Ильченко, Юлия Яковлева, Олег Алмазов, Дмитрий Поднозов и др.
Описание:
Как всегда блестяще справляясь со своими профессиональными обязанностями, Мария Швецова должна постоянно помнить и о другой важной части своей жизни. Семья тоже требует её терпения и заботы. Любимая мама и обожаемая супруга, как всегда проводит дома слишком мало времени, чтобы уделять хозяйству достаточно внимания. Поэтому Луганский предлагает Маше взять помощницу по дому, но Швецова не спешит соглашаться на это предложение, тем более, что Злата принимает эту идею в штыки: теперь она сама будет вести дом в отсутствие мамы! Отрадная поддержка со стороны дочери приходится очень кстати, ведь новые очень серьёзные дела не заставляют себя ждать. Швецовой приходится заниматься не только банальными на первый взгляд убийствами, но и расследованиями, в которых замешаны политические мотивы. И самые на первый взгляд просто складывающиеся расследования часто помогают вскрывать удивительные и страшные тайны прошлого.

Возраст: 12+ (зрителям, достигшим 12 лет)
Продолжительность: ~00:45:00 серия
Качество видео: HDTVRip
Видео: Xvid, 720x400 (16:9), ~1631 Kbps
Аудио: AC3, 2 ch, 192 Kbps, CBR

MediaInfo

Общее
Полное имя : D:\Мои фильмы\Tajny_sledstvija_S14_1-16iz16_2014_XviD_HDTVRip\1.Оторва.(1 сер.).avi
Формат : AVI
Формат/Информация : Audio Video Interleave
Размер файла : 555 Мбайт
Продолжительность : 42 м. 21 с.
Общий поток : 1833 Кбит/сек
Программа кодирования : Lavf53.19.0
Библиотека кодирования : VirtualDub build 35491/release
Видео
Идентификатор : 0
Формат : MPEG-4 Visual
Профиль формата : Advanced Simple@L5
Параметр BVOP формата : 2
Параметр QPel формата : Нет
Параметр GMC формата : Без точки перехода
Параметр матрицы формата : Default (H.263)
Идентификатор кодека : XVID
Идентификатор кодека/Подсказка : XviD
Продолжительность : 42 м. 21 с.
Битрейт : 1631 Кбит/сек
Ширина : 720 пикселей
Высота : 400 пикселей
Соотношение сторон : 16:9
Частота кадров : 25,000 кадров/сек
Цветовое пространство : YUV
Субдискретизация насыщенности : 4:2:0
Битовая глубина : 8 бит
Тип развёртки : Прогрессивная
Метод сжатия : С потерями
Бит/(Пиксели*Кадры) : 0.227
Размер потока : 494 Мбайт (89%)
Библиотека кодирования : XviD 67
Аудио
Идентификатор : 1
Формат : AC-3
Формат/Информация : Audio Coding 3
Расширение режима : CM (complete main)
Параметр Endianness формата : Big
Идентификатор кодека : 2000
Продолжительность : 42 м. 21 с.
Вид битрейта : Постоянный
Битрейт : 192 Кбит/сек
Каналы : 2 канала
Расположение каналов : Front: L R
Частота : 48,0 КГц
Частота кадров : 31,250 кадров/сек (1536 spf)
Битовая глубина : 16 бит
Метод сжатия : С потерями
Размер потока : 58,2 Мбайт (10%)
Выравнивание : Соединение по промежуткам
Продолжительность промежутка : 40 мс. (1,00 видеокадр)
Время предзагрузки промежутка : 512 мс.

Описание фильмов:

Фильм №1: Оторва (1-2 серии)Молодой прожигатель жизни Игорь Купцов решил "подцепить" в ночном клубе очередную девушку. Познакомившись с Катей - первой попавшейся симпатичной тусовщицей, Игорь сразу же предлагает ей поехать в гости к себе домой. Во время поездки Купцов, не стесненный никакими моральными ограничениями, завозит Катю в неприметный тупичок и пытается ее изнасиловать прямо в машине.Фильм №2: Компромат (1-2 серии)Скандальный журналист Чибисов, выступивший с громким разоблачением кандидата в депутаты Пучкова, становится жертвой жестокого убийства: хитроумно заложенное взрывное устройство разносит Чибисова на куски, когда он пытается открыть дверь собственной квартиры.Фильм №3: Сердечная недостаточность (1-2 серии)Катающиеся на роликах подростки случайно замечают рассыпанные по парковой аллее доллары. Мелкие купюры валялись и в придорожных кустах, раздвинув которые, мальчики сделали еще одну находку – труп молодой женщины в красном шарфе. Прибывшей на место преступления оперативной группе не составляет труда установить личность погибшей – у убитой оказались документы на имя Аллы Морозовой. Консьерж дома, в котором жила Алла, сообщает Курочкину, что девушка вела уединенный образ жизни, но дважды в неделю ее навещал некий постоянный гость.Фильм №4: Лишние люди (1-2 серии)На пустыре возле заброшенной стройки найдено тело бродяги Горшкова. Его гибель была поистине ужасной - перед смертью пьянчугу искалечили до неузнаваемости. Другие завсегдатаи того же пустыря - бомж Багров и его подруга Лена - не смогли сообщить оперативникам ничего вразумительного. Их бывший собутыльник отличался спокойным нравом, хотя опытный Кораблев замечает на запястье у покойного характерную тюремную татуировку.Фильм №5: Парик (1-2 серии)Ранним утром в ювелирном магазине появляется необычный посетитель. Точнее, с виду это посетительница – хорошо одетая дама в очках и с модной сумочкой в руках, однако обе продавщицы и охранник салона безошибочно опознают в этой экстравагантной особе мужчину. "Девушка", угрожая работникам ювелирного магазина пистолетом, забирает все самые ценные украшения и скрывается, застрелив охранника, оказавшегося у нее на пути.Фильм №6: Добрый человек (1-2 серии)Случайно столкнувшись на светском рауте со своей старой знакомой, успешной предпринимательницей Александрой Шинкаревой, Швецова и Колонкова даже представить не могли, что скоро им придется участвовать в расследовании ее зверского убийства. Труп Шинкаревой был обнаружен спустя неделю в ее собственной ванной. Преступник, удушивший жертву, сделал все от него зависящее, чтобы отсрочить обнаружение мертвого тела.Фильм 7: Бодяга (1-2 серии)Случайно столкнувшись на светском рауте со своей старой знакомой, успешной предпринимательницей Александрой Шинкаревой, Швецова и Колонкова даже представить не могли, что скоро им придется участвовать в расследовании ее зверского убийства. Труп Шинкаревой был обнаружен спустя неделю в ее собственной ванной. Преступник, удушивший жертву, сделал все от него зависящее, чтобы отсрочить обнаружение мертвого тела.Фильм №8: Доставка (1-2 серии)Вернувшаяся из отпуска семья Илюхиных обнаруживает у себя дома жуткую находку – труп молодого человека, прикованного наручниками к батарее парового отопления. За время отсутствия Илюхиных тело покойного успело наполовину мумифицироваться на сухом воздухе при наглухо закрытых окнах.
Скриншоты:




Показать сообщения:    

Текущее время: 22-Окт 19:26

Часовой пояс: UTC + 11


Вы не можете начинать темы
Вы не можете отвечать на сообщения
Вы не можете редактировать свои сообщения
Вы не можете удалять свои сообщения
Вы не можете голосовать в опросах
Вы не можете прикреплять файлы к сообщениям
Вы не можете скачивать файлы

Сайт не предоставляет электронные версии произведений, а занимается лишь коллекционированием и каталогизацией ссылок, присылаемых и публикуемых на форуме нашими читателями. Если вы являетесь правообладателем какого-либо представленного материала и не желаете, чтобы ссылка на него находилась в нашем каталоге, свяжитесь с нами, и мы незамедлительно удалим ее. Файлы для обмена на трекере предоставлены пользователями сайта, и администрация не несет ответственности за их содержание. Просьба не заливать файлы, защищенные авторскими правами, а также файлы нелегального содержания!